[ create a new paste ] login | about

Link: http://codepad.org/m2znweK8    [ raw code | fork ]

Plain Text, pasted on Mar 10:
[CUETools log; Date: 3/10/2016 4:19:32 PM; Version: 2.1.5]
Pregap length 00:00:32.
[CTDB TOCID: DR_RAqt48UFpYWYAho6q84ty4qc-] found.
Track | CTDB Status
  1   | (182/185) Accurately ripped
  2   | (182/185) Accurately ripped
  3   | (183/185) Accurately ripped
  4   | (183/185) Accurately ripped
  5   | (184/185) Accurately ripped
  6   | (183/185) Accurately ripped
  7   | (181/185) Accurately ripped
  8   | (183/185) Accurately ripped
  9   | (182/185) Accurately ripped
 10   | (182/185) Accurately ripped
 11   | (182/185) Accurately ripped
[AccurateRip ID: 000f641b-0085227f-a008b30b] found.
Track   [  CRC   |   V2   ] Status
 01     [8703120c|748108bd] (129+164/582) Accurately ripped
 02     [b305a80a|4a1e5a90] (131+165/587) Accurately ripped
 03     [a1b66541|6cc04408] (130+163/583) Accurately ripped
 04     [02938145|2a1465c6] (131+163/586) Accurately ripped
 05     [2d8bc162|e77b4f5d] (129+162/584) Accurately ripped
 06     [8dd36600|cdab69e5] (131+163/584) Accurately ripped
 07     [e3c92300|831265ae] (128+162/582) Accurately ripped
 08     [c7249fea|16b4becd] (132+163/587) Accurately ripped
 09     [b8dfef1b|268391c9] (130+164/586) Accurately ripped
 10     [3866e7e7|63cc5a56] (131+163/585) Accurately ripped
 11     [f24a9496|0d1e9694] (123+162/572) Accurately ripped
Offsetted by -2060:
 01     [ceabfe0b] (067/582) Accurately ripped
 02     [a8a99f36] (069/587) Accurately ripped
 03     [7db71e62] (068/583) Accurately ripped
 04     [f4d081f6] (068/586) Accurately ripped
 05     [86656202] (069/584) Accurately ripped
 06     [2f5154a9] (068/584) Accurately ripped
 07     [5da51cd8] (068/582) Accurately ripped
 08     [6ebdea69] (068/587) Accurately ripped
 09     [f321dd8d] (068/586) Accurately ripped
 10     [a39b0d74] (068/585) Accurately ripped
 11     [3131d2cd] (064/572) Accurately ripped
Offsetted by -1868:
 01     [df906c76] (007/582) Accurately ripped
 02     [a65611a7] (007/587) Accurately ripped
 03     [f437b581] (007/583) Accurately ripped
 04     [1d9b2313] (007/586) Accurately ripped
 05     [3d982e6f] (007/584) Accurately ripped
 06     [97b269ae] (007/584) Accurately ripped
 07     [c24d4f15] (007/582) Accurately ripped
 08     [f544e2a5] (007/587) Accurately ripped
 09     [23aeccb0] (007/586) Accurately ripped
 10     [4095e02d] (007/585) Accurately ripped
 11     [c006b4d8] (007/572) Accurately ripped
Offsetted by -1199:
 01     [bd007d2c] (050/582) Accurately ripped
 02     [a8951dba] (051/587) Accurately ripped
 03     [22d864fe] (050/583) Accurately ripped
 04     [22c997db] (051/586) Accurately ripped
 05     [234d6ee3] (050/584) Accurately ripped
 06     [9f62f651] (050/584) Accurately ripped
 07     [60548440] (051/582) Accurately ripped
 08     [ccd21c88] (050/587) Accurately ripped
 09     [9ca4b058] (051/586) Accurately ripped
 10     [159f43e2] (050/585) Accurately ripped
 11     [73c13dcd] (050/572) Accurately ripped
Offsetted by -558:
 01     [8dbcbb14] (003/582) Accurately ripped
 02     [3832927e] (003/587) Accurately ripped
 03     [e5e0c292] (003/583) Accurately ripped
 04     [15efa6af] (003/586) Accurately ripped
 05     [217bfe20] (003/584) Accurately ripped
 06     [0b4c4655] (003/584) Accurately ripped
 07     [b6add071] (003/582) Accurately ripped
 08     [6e235c3b] (003/587) Accurately ripped
 09     [7c8cc985] (003/586) Accurately ripped
 10     [6e938644] (003/585) Accurately ripped
 11     [96249749] (003/572) Accurately ripped
Offsetted by 2853:
 01     [fdf6db5c] (021/582) Accurately ripped
 02     [20aeed61] (021/587) Accurately ripped
 03     [1b027614] (021/583) Accurately ripped
 04     [ac4fccc5] (021/586) Accurately ripped
 05     [ec68b5db] (021/584) Accurately ripped
 06     [16396169] (021/584) Accurately ripped
 07     [14ebb6c9] (021/582) Accurately ripped
 08     [8563e306] (021/587) Accurately ripped
 09     [07b55e12] (021/586) Accurately ripped
 10     [483d3a3d] (021/585) Accurately ripped
 11     [4080c655] (000/572) No match (V2 was not tested)

Track Peak [ CRC32  ] [W/O NULL] [  LOG   ]
 --   80.7 [015C42AD] [7140DA24]   CRC32   
 01   80.7 [BC9B249A] [0E2E8386]           
 02   73.3 [7DADF6E7] [501AE9A3]           
 03   73.9 [69D0FBE9] [46C53229]           
 04   80.1 [F30A2597] [BF2CA3C7]           
 05   44.8 [FBA002FD] [9395FE2C]           
 06   62.8 [E1DCEF2A] [76E562A7]           
 07   67.1 [97F305E4] [72EFD470]           
 08   80.7 [8543158B] [B4CD3981]           
 09   35.6 [58EC2B27] [D163A036]           
 10   78.8 [3E0BF111] [71AF42D3]           
 11   54.4 [23754517] [2D710CE1]           



Create a new paste based on this one


Comments: