[ create a new paste ] login | about

Link: http://codepad.org/m5GeQTwa    [ raw code | fork ]

Plain Text, pasted on Mar 5:
1
2
3
4
5
6
7
8
9
10
11
12
13
14
15
16
17
18
19
20
21
22
23
24
25
26
27
28
29
30
31
32
33
34
35
36
37
38
39
40
41
42
43
44
45
46
47
48
49
50
51
52
53
54
55
56
57
58
59
60
61
62
63
64
65
66
67
68
69
70
71
72
73
74
75
76
77
78
79
80
81
82
83
84
85
86
87
88
89
90
91
92
93
94
95
96
97
98
99
100
101
102
103
104
105
106
107
108
109
110
111
112
113
114
115
116
117
118
119
120
121
122
123
124
125
126
127
128
129
130
131
132
133
134
135
136
137
138
139
140
141
142
143
144
145
146
147
148
149
150
151
152
153
154
155
156
157
158
159
160
161
162
163
164
165
166
167
168
169
170
171
172
173
174
175
176
177
178
179
180
181
182
183
184
185
186
187
188
189
190
191
192
193
194
195
196
197
198
199
200
201
202
203
204
205
206
207
208
209
210
211
212
213
214
215
216
217
218
219
220
221
222
223
224
225
226
227
228
229
230
231
232
233
234
235
236
237
238
239
240
241
242
243
244
245
246
247
248
249
250
251
252
253
254
255
256
257
258
259
260
261
262
263
264
265
266
267
268
269
270
271
272
273
274
275
276
277
278
279
280
281
282
283
284
285
286
287
288
289
290
291
292
293
294
295
296
297
298
299
300
301
302
303
304
305
306
307
308
309
310
311
312
313
314
315
316
317
318
319
320
321
322
323
324
325
326
327
328
329
330
331
332
333
334
335
336
337
338
339
340
341
342
343
344
345
346
347
348
349
350
351
352
353
354
355
356
357
358
359
360
361
362
363
364
365
366
367
368
369
370
371
372
373
374
375
376
377
378
379
380
381
382
383
384
385
386
387
388
389
390
391
392
393
394
395
396
397
398
399
400
401
402
403
404
405
406
407
408
409
410
411
412
413
414
415
416
417
418
419
420
421
422
423
424
425
426
427
428
429
430
431
432
433
434
435
436
437
438
439
440
441
442
443
444
445
446
447
448
449
450
451
452
453
454
455
456
457
458
459
460
461
462
463
464
465
466
467
468
469
470
471
472
473
474
475
476
477
478
479
480
481
482
483
484
485
486
487
488
489
490
491
492
493
494
495
496
497
498
499
500
501
502
503
504
505
506
507
508
509
510
511
512
513
514
515
516
517
518
519
520
521
522
523
524
525
526
527
528
529
530
531
532
533
534
535
536
537
538
539
540
541
542
543
544
545
546
547
548
549
550
551
552
553
554
555
556
557
558
559
560
561
562
563
564
565
566
567
568
569
570
571
572
573
574
575
576
577
578
579
580
581
582
583
584
585
586
587
588
589
590
591
592
593
594
595
596
597
598
599
600
601
602
603
604
605
606
607
608
609
610
611
612
613
614
615
616
617
618
619
620
621
622
623
624
625
626
627
628
629
630
631
632
633
634
635
636
637
638
639
640
641
642
643
644
645
646
647
648
649
650
651
652
653
654
655
656
657
658
659
660
661
662
663
664
665
666
667
668
669
670
671
672
673
674
675
676
677
678
679
680
681
682
683
684
685
686
687
688
689
690
691
692
693
694
695
696
697
698
699
700
701
702
703
704
705
706
707
708
709
710
711
712
713
714
715
716
717
718
719
720
721
722
723
724
725
726
727
728
729
730
731
732
733
734
735
736
737
738
739
740
741
742
743
744
745
746
747
748
749
750
751
752
753
754
755
756
757
758
759
760
761
762
763
764
765
766
767
768
769
770
771
772
773
774
775
776
777
778
779
780
781
782
783
784
785
786
787
788
789
790
791
792
793
794
795
796
797
798
799
800
801
802
803
804
805
806
807
808
809
810
811
812
813
814
815
816
817
818
819
820
821
822
823
824
825
826
827
828
829
830
831
832
833
834
835
836
837
838
839
840
841
842
843
844
845
846
847
848
849
850
851
852
853
854
855
856
857
858
859
860
861
862
863
864
865
866
867
868
869
870
871
872
873
874
875
876
877
878
879
880
881
882
883
884
885
886
887
888
889
890
891
892
893
894
895
896
897
898
899
900
901
902
903
904
905
906
907
908
909
910
911
912
913
914
915
916
917
918
919
920
921
922
923
924
925
926
927
928
929
930
931
932
933
934
935
936
937
938
939
940
941
942
943
944
945
946
947
948
949
950
951
952
953
954
955
956
957
958
959
960
961
962
963
964
965
966
967
968
969
970
971
972
973
974
975
976
977
978
979
980
981
982
983
984
985
986
987
988
989
990
991
992
993
994
995
996
997
998
999
1000
1001
1002
1003
1004
1005
1006
1007
1008
1009
1010
1011
1012
1013
1014
1015
1016
1017
1018
1019
1020
1021
1022
1023
1024
1025
1026
1027
1028
1029
1030
1031
1032
1033
1034
1035
1036
1037
1038
1039
1040
1041
1042
1043
1044
1045
1046
1047
1048
1049
1050
1051
1052
1053
1054
1055
1056
1057
1058
1059
1060
1061
1062
1063
1064
1065
1066
1067
1068
1069
1070
1071
1072
1073
1074
1075
1076
1077
1078
1079
1080
1081
1082
1083
1084
1085
1086
1087
1088
1089
1090
1091
1092
1093
1094
1095
1096
1097
1098
1099
1100
1101
1102
1103
1104
1105
1106
1107
1108
1109
1110
1111
1112
1113
1114
1115
1116
1117
1118
1119
1120
1121
1122
1123
1124
1125
1126
1127
1128
1129
1130
1131
1132
1133
1134
1135
1136
1137
1138
1139
1140
1141
1142
1143
1144
1145
1146
1147
1148
1149
1150
1151
1152
1153
1154
1155
1156
1157
1158
1159
1160
1161
1162
1163
1164
1165
1166
1167
1168
1169
1170
1171
1172
1173
1174
1175
1176
1177
1178
1179
1180
1181
1182
1183
1184
1185
1186
1187
1188
1189
1190
1191
1192
1193
1194
1195
1196
1197
1198
1199
1200
1201
1202
1203
1204
1205
1206
1207
1208
1209
1210
1211
1212
1213
1214
1215
1216
1217
1218
1219
1220
1221
1222
1223
1224
1225
1226
1227
1228
1229
1230
1231
1232
1233
1234
1235
1236
1237
1238
1239
1240
1241
1242
1243
1244
1245
1246
1247
1248
1249
1250
1251
Sugar Mountain Live At Canterbury House 1968 (1968) {2016 Remaster}
->
foobar2000 1.5 / Dynamic Range Meter 1.1.1
log date: 2020-03-05 07:15:50

--------------------------------------------------------------------------------
Analyzed: Neil Young / Sugar Mountain - Live At Canterbury House 1968
--------------------------------------------------------------------------------

DR         Peak         RMS     Duration Track
--------------------------------------------------------------------------------
DR19      -0.53 dB   -27.65 dB      0:45 01-Emcee Intro
DR14      -2.33 dB   -20.84 dB      2:52 02-On The Way Home
DR15      -6.09 dB   -27.33 dB      3:13 03-Songwriting Rap
DR13      -0.93 dB   -17.32 dB      3:14 04-Mr. Soul
DR16      -7.50 dB   -29.74 dB      0:30 05-Recording Rap
DR13      -0.33 dB   -18.52 dB      2:39 06-Expecting To Fly
DR14      -0.60 dB   -20.16 dB      8:36 07-The Last Trip To Tulsa
DR16      -2.69 dB   -26.50 dB      4:27 08-Bookstore Rap
DR14      -4.23 dB   -22.72 dB      4:41 09-The Loner
DR14      -9.14 dB   -28.42 dB      0:38 10-“I Used To...” Rap
DR12      -4.63 dB   -20.50 dB      2:17 11-Birds
DR15      -9.66 dB   -30.11 dB      1:38 12-Winterlong (Excerpt) & Out Of My Mind Intro
DR13      -2.94 dB   -20.42 dB      2:07 13-Out Of My Mind
DR12      -4.98 dB   -21.39 dB      2:34 14-If I Could Have Her Tonight
DR13     -11.17 dB   -32.52 dB      0:41 15-Classical Gas Rap
DR11      -8.91 dB   -27.27 dB      0:29 16-Sugar Mountain Intro
DR14      -2.55 dB   -21.84 dB      5:47 17-Sugar Mountain
DR13      -2.07 dB   -19.19 dB      2:04 18-I've Been Waiting For You
DR17      -6.38 dB   -26.80 dB      0:38 19-Songs Rap
DR13      -1.35 dB   -17.56 dB      4:43 20-Nowadays Clancy Can't Even Sing
DR17      -5.26 dB   -27.67 dB      3:06 21-Tuning Rap & The Old Laughing Lady Intro
DR14      -0.55 dB   -20.34 dB      7:26 22-The Old Laughing Lady
DR13      -1.90 dB   -19.86 dB      5:09 23-Broken Arrow
--------------------------------------------------------------------------------

Number of tracks:  23
Official DR value: DR14

Samplerate:        192000 Hz
Channels:          2
Bits per sample:   24
Bitrate:           4672 kbps
Codec:             FLAC
================================================================================
->
=========================================================================================================================================================
->
Everybody Knows This Is Nowhere (1969) {2014 Remaster}
->
foobar2000 1.5 / Dynamic Range Meter 1.1.1
log date: 2020-03-05 07:16:19

--------------------------------------------------------------------------------
Analyzed: Neil Young With Crazy Horse / Everybody Knows This Is Nowhere
--------------------------------------------------------------------------------

DR         Peak         RMS     Duration Track
--------------------------------------------------------------------------------
DR9       -0.52 dB   -11.49 dB      3:01 01-Cinnamon Girl
DR9       -1.82 dB   -14.17 dB      2:32 02-Everybody Knows This Is Nowhere
DR9       -3.26 dB   -15.08 dB      5:55 03-Round & Round (It Won't Be Long)
DR10      -0.12 dB   -11.68 dB      9:27 04-Down By The River
DR10      -1.45 dB   -13.40 dB      4:08 05-The Losing End (When You're On)
DR10      -1.82 dB   -15.13 dB      5:37 06-Running Dry (Requiem For The Rockets)
DR10      -0.13 dB   -11.72 dB     10:07 07-Cowgirl In The Sand
--------------------------------------------------------------------------------

Number of tracks:  7
Official DR value: DR10

Samplerate:        192000 Hz
Channels:          2
Bits per sample:   24
Bitrate:           5438 kbps
Codec:             FLAC
================================================================================
->
=========================================================================================================================================================
->
Neil Young (1969) {2014 Remaster}
->
foobar2000 1.5 / Dynamic Range Meter 1.1.1
log date: 2020-03-05 07:16:45

--------------------------------------------------------------------------------
Analyzed: Neil Young / Neil Young
--------------------------------------------------------------------------------

DR         Peak         RMS     Duration Track
--------------------------------------------------------------------------------
DR11      -3.43 dB   -16.43 dB      2:20 01-The Emperor Of Wyoming
DR11      -0.21 dB   -13.57 dB      3:55 02-The Loner
DR12      -2.01 dB   -16.17 dB      2:22 03-If I Could Have Her Tonight
DR11      -0.18 dB   -13.50 dB      2:35 04-I've Been Waiting For You
DR13      -0.14 dB   -17.38 dB      6:05 05-The Old Laughing Lady
DR10      -5.68 dB   -19.57 dB      1:06 06-String Quartet From Whiskey Boot Hill
DR11      -0.04 dB   -15.28 dB      3:19 07-Here We Are In The Years
DR11      -1.01 dB   -14.63 dB      2:30 08-What Did You Do To My Life?
DR12      -0.90 dB   -16.95 dB      2:47 09-I've Loved Her So Long
DR12      -1.08 dB   -18.99 dB      9:27 10-The Last Trip To Tulsa
--------------------------------------------------------------------------------

Number of tracks:  10
Official DR value: DR11

Samplerate:        192000 Hz
Channels:          2
Bits per sample:   24
Bitrate:           4907 kbps
Codec:             FLAC
================================================================================
->
=========================================================================================================================================================
->
After The Gold Rush (1970) {2014 Remaster}
->
foobar2000 1.5 / Dynamic Range Meter 1.1.1
log date: 2020-03-05 07:17:11

--------------------------------------------------------------------------------
Analyzed: Neil Young / After The Gold Rush
--------------------------------------------------------------------------------

DR         Peak         RMS     Duration Track
--------------------------------------------------------------------------------
DR10      -1.24 dB   -14.64 dB      2:59 01-Tell Me Why
DR10      -2.73 dB   -15.22 dB      3:47 02-After The Gold Rush
DR11      -2.07 dB   -15.28 dB      3:10 03-Only Love Can Break Your Heart
DR10      -0.13 dB   -12.16 dB      5:31 04-Southern Man
DR12      -1.78 dB   -16.71 dB      1:28 05-Till The Morning Comes
DR11      -1.42 dB   -14.66 dB      3:50 06-Oh, Lonesome Me
DR12      -0.04 dB   -14.75 dB      3:00 07-Don't Let It Bring You Down
DR11      -4.19 dB   -18.79 dB      2:33 08-Birds
DR9       -1.70 dB   -14.81 dB      3:46 09-When You Dance I Can Really Love
DR10      -3.19 dB   -15.96 dB      3:27 10-I Believe In You
DR11      -3.56 dB   -17.59 dB      1:34 11-Cripple Creek Ferry
--------------------------------------------------------------------------------

Number of tracks:  11
Official DR value: DR11

Samplerate:        192000 Hz
Channels:          2
Bits per sample:   24
Bitrate:           4993 kbps
Codec:             FLAC
================================================================================
->
=========================================================================================================================================================
->
Live At The Cellar Door (1970) {2013 Remaster}
->
foobar2000 1.5 / Dynamic Range Meter 1.1.1
log date: 2020-03-05 07:17:42

--------------------------------------------------------------------------------
Analyzed: Neil Young / Live At The Cellar Door
--------------------------------------------------------------------------------

DR         Peak         RMS     Duration Track
--------------------------------------------------------------------------------
DR14       0.00 dB   -16.32 dB      2:52 01-Tell Me Why
DR14      -0.09 dB   -17.03 dB      3:14 02-Only Love Can Break Your Heart
DR12      -0.46 dB   -16.49 dB      3:48 03-After The Gold Rush
DR12       0.00 dB   -16.37 dB      3:22 04-Expecting To Fly
DR13      -0.14 dB   -17.13 dB      2:01 05-Bad Fog Of Loneliness
DR15       0.00 dB   -19.13 dB      3:41 06-Old Man
DR14      -0.01 dB   -18.03 dB      2:19 07-Birds
DR15       0.00 dB   -17.09 dB      2:38 08-Don't Let It Bring You Down
DR12      -1.29 dB   -17.40 dB      3:21 09-See The Sky About To Rain
DR12       0.00 dB   -16.88 dB      3:29 10-Cinnamon Girl
DR13      -1.94 dB   -17.56 dB      2:44 11-I Am A Child
DR15      -0.05 dB   -19.16 dB      4:25 12-Down By The River
DR14      -1.27 dB   -20.06 dB      7:11 13-Flying On The Ground Is Wrong
--------------------------------------------------------------------------------

Number of tracks:  13
Official DR value: DR13

Samplerate:        192000 Hz
Channels:          2
Bits per sample:   24
Bitrate:           4461 kbps
Codec:             FLAC
================================================================================
->
=========================================================================================================================================================
->
Harvest (1972) {2014 Remaster}
->
foobar2000 1.5 / Dynamic Range Meter 1.1.1
log date: 2020-03-05 07:18:08

--------------------------------------------------------------------------------
Analyzed: Neil Young / Harvest
--------------------------------------------------------------------------------

DR         Peak         RMS     Duration Track
--------------------------------------------------------------------------------
DR15      -0.58 dB   -19.47 dB      4:34 01-Out On The Weekend
DR12      -4.75 dB   -19.71 dB      3:12 02-Harvest
DR13      -2.59 dB   -22.34 dB      4:05 03-A Man Needs A Maid
DR12      -1.10 dB   -15.57 dB      3:07 04-Heart Of Gold
DR13      -0.01 dB   -15.40 dB      3:25 05-Are You Ready For The Country
DR12      -3.20 dB   -19.33 dB      3:25 06-Old Man
DR12      -2.51 dB   -19.57 dB      3:00 07-There's A World
DR10      -2.83 dB   -16.26 dB      4:03 08-Alabama
DR14      -5.66 dB   -23.26 dB      2:03 09-The Needle And The Damage Done
DR12      -3.87 dB   -18.05 dB      6:49 10-Words (Between The Lines Of Age)
--------------------------------------------------------------------------------

Number of tracks:  10
Official DR value: DR12

Samplerate:        192000 Hz
Channels:          2
Bits per sample:   24
Bitrate:           4912 kbps
Codec:             FLAC
================================================================================
->
=========================================================================================================================================================
->
Time Fades Away (1973) {2014 Remaster}
->
foobar2000 1.5 / Dynamic Range Meter 1.1.1
log date: 2020-03-05 07:18:37

--------------------------------------------------------------------------------
Analyzed: Neil Young / Time Fades Away
--------------------------------------------------------------------------------

DR         Peak         RMS     Duration Track
--------------------------------------------------------------------------------
DR13      -1.57 dB   -16.02 dB      5:32 01-Time Fades Away
DR13      -7.04 dB   -23.70 dB      3:18 02-Journey Through The Past
DR12      -0.01 dB   -15.52 dB      3:16 03-Yonder Stands The Sinner
DR12      -2.44 dB   -15.62 dB      3:10 04-L.A.
DR13      -2.39 dB   -23.24 dB      1:56 05-Love In Mind
DR12      -0.29 dB   -16.38 dB      5:17 06-Don't Be Denied
DR12      -2.49 dB   -19.55 dB      3:04 07-The Bridge
DR11      -0.41 dB   -13.03 dB      8:43 08-Last Dance
--------------------------------------------------------------------------------

Number of tracks:  8
Official DR value: DR12

Samplerate:        192000 Hz
Channels:          2
Bits per sample:   24
Bitrate:           5004 kbps
Codec:             FLAC
================================================================================
->
=========================================================================================================================================================
->
On The Beach (1974) {2014 Remaster}
->
foobar2000 1.5 / Dynamic Range Meter 1.1.1
log date: 2020-03-05 07:19:04

--------------------------------------------------------------------------------
Analyzed: Neil Young / On The Beach
--------------------------------------------------------------------------------

DR         Peak         RMS     Duration Track
--------------------------------------------------------------------------------
DR10      -1.87 dB   -14.46 dB      2:41 01-Walk On
DR13      -1.69 dB   -18.04 dB      5:04 02-See The Sky About To Rain
DR12      -0.28 dB   -14.01 dB      4:04 03-Revolution Blues
DR14      -3.35 dB   -22.20 dB      3:15 04-For The Turnstiles
DR13      -3.33 dB   -19.51 dB      4:15 05-Vampire Blues
DR11      -1.71 dB   -15.44 dB      6:59 06-On The Beach
DR13      -3.58 dB   -19.93 dB      4:24 07-Motion Pictures (For Carrie)
DR13      -1.50 dB   -17.06 dB      8:56 08-Ambulance Blues
--------------------------------------------------------------------------------

Number of tracks:  8
Official DR value: DR12

Samplerate:        176400 Hz
Channels:          2
Bits per sample:   24
Bitrate:           4485 kbps
Codec:             FLAC
================================================================================
->
=========================================================================================================================================================
->
Roxy: Tonight's The Night Live (1975) {2018 Remaster}
->
foobar2000 1.5 / Dynamic Range Meter 1.1.1
log date: 2020-03-05 07:19:47

--------------------------------------------------------------------------------
Analyzed: Neil Young / ROXY: Tonight's The Night Live
--------------------------------------------------------------------------------

DR         Peak         RMS     Duration Track
--------------------------------------------------------------------------------
DR14      -3.42 dB   -21.93 dB      0:43 01-Intro
DR12      -0.61 dB   -16.70 dB      6:56 02-Tonight's The Night
DR11      -2.58 dB   -19.63 dB      0:52 03-Roll Out The Barrel
DR11      -2.14 dB   -15.56 dB      3:11 04-Mellow My Mind
DR11      -1.69 dB   -15.55 dB      2:43 05-World On A String
DR15      -4.07 dB   -25.13 dB      1:23 06-Band Intro
DR12      -0.53 dB   -15.81 dB      6:37 07-Speakin' Out
DR12     -10.52 dB   -29.61 dB      0:31 08-Candy Bar Rap
DR12      -1.91 dB   -16.66 dB      3:51 09-Albuquerque
DR8       -8.75 dB   -29.64 dB      0:17 10-Perry Como Rap
DR16      -1.17 dB   -19.63 dB      2:29 11-New Mama
DR12     -15.25 dB   -32.18 dB      0:36 12-David Geffen Rap
DR12      -1.27 dB   -16.40 dB      4:48 13-Roll Another Number (For The Road)
DR10      -9.44 dB   -27.50 dB      0:20 14-Candy Bar 2 Rap
DR13       0.00 dB   -17.97 dB      7:03 15-Tired Eyes
DR12      -0.35 dB   -16.37 dB      6:38 16-Tonight's The Night (Pt. II)
DR11       0.00 dB   -13.58 dB      3:38 17-Walk On
DR15      -6.76 dB   -30.63 dB      0:34 18-Outro
--------------------------------------------------------------------------------

Number of tracks:  18
Official DR value: DR12

Samplerate:        192000 Hz
Channels:          2
Bits per sample:   24
Bitrate:           4719 kbps
Codec:             FLAC
================================================================================
->
=========================================================================================================================================================
->
Tonight's The Night (1975) {2014 Remaster}
->
foobar2000 1.5 / Dynamic Range Meter 1.1.1
log date: 2020-03-05 07:20:25

--------------------------------------------------------------------------------
Analyzed: Neil Young / Tonight's The Night
--------------------------------------------------------------------------------

DR         Peak         RMS     Duration Track
--------------------------------------------------------------------------------
DR13      -1.35 dB   -18.59 dB      4:41 01-Tonight's The Night
DR13      -0.93 dB   -18.18 dB      4:57 02-Speakin' Out
DR12      -1.81 dB   -16.59 dB      2:25 03-World On A String
DR15      -4.03 dB   -24.66 dB      3:25 04-Borrowed Tune
DR11      -3.19 dB   -16.38 dB      3:35 05-Come On Baby Let's Go Downtown
DR12      -2.69 dB   -17.82 dB      3:10 06-Mellow My Mind
DR12      -1.18 dB   -16.61 dB      3:04 07-Roll Another Number (For The Road)
DR12      -2.23 dB   -18.04 dB      4:01 08-Albuquerque
DR13      -4.83 dB   -22.85 dB      2:13 09-New Mama
DR12      -1.50 dB   -16.40 dB      3:54 10-Lookout Joe
DR13      -0.37 dB   -17.74 dB      4:36 11-Tired Eyes
DR13       0.00 dB   -16.49 dB      4:52 12-Tonight's The Night Part II
--------------------------------------------------------------------------------

Number of tracks:  12
Official DR value: DR13

Samplerate:        192000 Hz
Channels:          2
Bits per sample:   24
Bitrate:           4850 kbps
Codec:             FLAC
================================================================================
->
=========================================================================================================================================================
->
Zuma (1975) {2014 Remaster}
->
foobar2000 1.5 / Dynamic Range Meter 1.1.1
log date: 2020-03-05 07:20:54

--------------------------------------------------------------------------------
Analyzed: Neil Young & Crazy Horse / Zuma
--------------------------------------------------------------------------------

DR         Peak         RMS     Duration Track
--------------------------------------------------------------------------------
DR11      -0.44 dB   -13.80 dB      2:35 01-Don't Cry No Tears
DR12      -0.24 dB   -15.87 dB      6:55 02-Danger Bird
DR14      -1.22 dB   -19.39 dB      3:48 03-Pardon My Heart
DR12      -1.99 dB   -16.55 dB      3:16 04-Lookin' For A Love
DR10      -1.80 dB   -14.27 dB      3:01 05-Barstool Blues
DR13      -0.42 dB   -16.11 dB      3:12 06-Stupid Girl
DR12       0.00 dB   -14.75 dB      3:33 07-Drive Back
DR14       0.00 dB   -16.60 dB      7:31 08-Cortez The Killer
DR12      -1.79 dB   -18.02 dB      2:41 09-Through My Sails
--------------------------------------------------------------------------------

Number of tracks:  9
Official DR value: DR12

Samplerate:        192000 Hz
Channels:          2
Bits per sample:   24
Bitrate:           4738 kbps
Codec:             FLAC
================================================================================
->
=========================================================================================================================================================
->
Hitchhiker (1976) {2017 Remaster}
->
foobar2000 1.5 / Dynamic Range Meter 1.1.1
log date: 2020-03-05 07:21:22

--------------------------------------------------------------------------------
Analyzed: Neil Young / Hitchhiker
--------------------------------------------------------------------------------

DR         Peak         RMS     Duration Track
--------------------------------------------------------------------------------
DR13      -0.16 dB   -15.71 dB      3:27 01-Pocahontas
DR13      -0.91 dB   -17.75 dB      3:23 02-Powderfinger
DR14      -1.69 dB   -20.37 dB      2:52 03-Captain Kennedy
DR13      -3.24 dB   -19.65 dB      2:38 04-Hawaii
DR12      -3.09 dB   -18.11 dB      3:40 05-Give Me Strength
DR14      -2.47 dB   -19.15 dB      1:50 06-Ride My Llama
DR14      -1.65 dB   -19.47 dB      4:37 07-Hitchhiker
DR13      -2.44 dB   -17.76 dB      4:19 08-Campaigner
DR13      -0.81 dB   -18.25 dB      3:17 09-Human Highway
DR16      -0.58 dB   -20.29 dB      3:38 10-The Old Country Waltz
--------------------------------------------------------------------------------

Number of tracks:  10
Official DR value: DR14

Samplerate:        192000 Hz
Channels:          2
Bits per sample:   24
Bitrate:           5482 kbps
Codec:             FLAC
================================================================================
->
=========================================================================================================================================================
->
American Stars 'N Bars (1977) {2016 Remaster}
->
foobar2000 1.5 / Dynamic Range Meter 1.1.1
log date: 2020-03-05 07:21:36

--------------------------------------------------------------------------------
Analyzed: Neil Young / American Stars 'N Bars
--------------------------------------------------------------------------------

DR         Peak         RMS     Duration Track
--------------------------------------------------------------------------------
DR11      -1.60 dB   -15.17 dB      3:00 01-The Old Country Waltz
DR10      -0.92 dB   -12.90 dB      3:01 02-Saddle Up The Palomino
DR10      -1.09 dB   -14.13 dB      3:38 03-Hey Babe
DR12      -1.37 dB   -16.17 dB      4:21 04-Hold Back The Tears
DR9       -0.61 dB   -11.80 dB      3:32 05-Bite The Bullet
DR13      -1.64 dB   -18.72 dB      2:43 06-Star Of Bethlehem
DR12      -1.34 dB   -17.16 dB      7:11 07-Will To Love
DR11      -0.23 dB   -12.69 dB      8:21 08-Like A Hurricane
DR11      -0.18 dB   -13.82 dB      2:22 09-Homegrown
--------------------------------------------------------------------------------

Number of tracks:  9
Official DR value: DR11

Samplerate:        88200 Hz
Channels:          2
Bits per sample:   24
Bitrate:           2781 kbps
Codec:             FLAC
================================================================================
->
=========================================================================================================================================================
->
Decade (1977) {2017 Remaster}
->
foobar2000 1.5 / Dynamic Range Meter 1.1.1
log date: 2020-03-05 07:22:35

--------------------------------------------------------------------------------
Analyzed: Buffalo Springfield / Decade (1-6)
          Crosby, Stills, Nash & Young / Decade (7-8)
          Neil Young & Crazy Horse / Decade (9-16)
          Neil Young / Decade (17-34)
          The Stills-Young Band / Decade (35)
--------------------------------------------------------------------------------

DR         Peak         RMS     Duration Track
--------------------------------------------------------------------------------
DR9       -1.14 dB   -13.46 dB      2:32 01-Down to the Wire
DR9       -0.91 dB   -11.96 dB      2:17 02-Burned
DR11       0.00 dB   -13.28 dB      2:49 03-Mr.Soul
DR11      -2.01 dB   -16.30 dB      6:15 04-Broken Arrow
DR10      -1.07 dB   -14.95 dB      3:48 05-Expecting to Fly
DR11      -3.76 dB   -17.54 dB      2:19 07-I Am a Child
DR11      -2.91 dB   -17.82 dB      3:40 16-Helpless
DR10      -0.20 dB   -12.37 dB      3:01 17-Ohio
DR9       -1.02 dB   -11.92 dB      3:00 10-Cinnamon Girl
DR10      -0.12 dB   -11.64 dB      9:20 11-Down By the River
DR10      -0.13 dB   -11.72 dB     10:06 12-Cowgirl In the Sand
DR10      -2.18 dB   -14.95 dB      3:27 13-I Believe in You
DR10      -3.23 dB   -15.72 dB      3:46 14-After the Gold Rush
DR10      -0.19 dB   -12.18 dB      5:30 15-Southern Man
DR11       0.00 dB   -11.61 dB      8:17 31-Like a Hurricane
DR13       0.00 dB   -14.75 dB      7:32 33-Cortez the Killer
DR10      -4.75 dB   -17.22 dB      5:46 06-Sugar Mountain
DR11      -0.21 dB   -13.51 dB      3:52 08-The Loner
DR13      -0.85 dB   -18.06 dB      6:00 09-The Old Laughing Lady
DR11      -5.40 dB   -20.56 dB      2:29 18-Soldier
DR12      -1.12 dB   -17.04 dB      3:22 19-Old Man
DR13       0.00 dB   -18.79 dB      4:01 20-A Man Needs a Maid
DR12      -4.74 dB   -19.71 dB      3:12 21-Harvest
DR12      -2.11 dB   -16.57 dB      3:07 22-Heart of Gold
DR11      -1.62 dB   -15.92 dB      2:50 23-Star of Bethlehem
DR13      -2.14 dB   -19.46 dB      2:03 24-The Needle and the Damage Done
DR12       0.00 dB   -14.89 dB      4:41 25-Tonight's the Night, Pt.1
DR12      -0.01 dB   -16.05 dB      4:33 26-Tired Eyes
DR10      -1.14 dB   -13.86 dB      2:42 27-Walk On
DR14      -1.59 dB   -20.49 dB      3:01 28-For the Turnstiles
DR9        0.00 dB   -11.41 dB      3:08 29-Winterlong
DR13      -0.86 dB   -17.74 dB      3:45 30-Deep Forbidden Lake
DR11      -1.48 dB   -14.79 dB      2:17 32-Love Is a Rose
DR13      -0.72 dB   -16.09 dB      3:31 34-Campaigner
DR10       0.00 dB   -13.00 dB      3:49 35-Long May You Run
--------------------------------------------------------------------------------

Number of tracks:  35
Official DR value: DR11

Samplerate:        96000 Hz
Channels:          2
Bits per sample:   24
Bitrate:           2897 kbps
Codec:             FLAC
================================================================================
->
=========================================================================================================================================================
->
Comes A Time (1978) {2014 Remaster}
->
foobar2000 1.5 / Dynamic Range Meter 1.1.1
log date: 2020-03-05 07:23:02

--------------------------------------------------------------------------------
Analyzed: Neil Young / Comes A Time
--------------------------------------------------------------------------------

DR         Peak         RMS     Duration Track
--------------------------------------------------------------------------------
DR13      -1.14 dB   -18.15 dB      4:41 01-Goin' Back
DR14      -0.18 dB   -16.58 dB      3:05 02-Comes A Time
DR13      -0.62 dB   -17.59 dB      4:05 03-Look Out For My Love
DR12      -3.39 dB   -17.43 dB      2:38 04-Lotta Love
DR14      -2.84 dB   -19.17 dB      4:07 05-Peace Of Mind
DR13      -0.40 dB   -17.21 dB      3:09 06-Human Highway
DR13      -1.67 dB   -17.65 dB      4:53 07-Already One
DR13      -0.97 dB   -16.92 dB      3:08 08-Field Of Opportunity
DR11      -1.96 dB   -17.20 dB      3:09 09-Motorcycle Mama
DR13      -1.30 dB   -16.40 dB      4:06 10-Four Strong Winds
--------------------------------------------------------------------------------

Number of tracks:  10
Official DR value: DR13

Samplerate:        192000 Hz
Channels:          2
Bits per sample:   24
Bitrate:           4936 kbps
Codec:             FLAC
================================================================================
->
=========================================================================================================================================================
->
Live Rust (1979) {2014 Remaster}
->
foobar2000 1.5 / Dynamic Range Meter 1.1.1
log date: 2020-03-05 07:24:04

--------------------------------------------------------------------------------
Analyzed: Neil Young & Crazy Horse / Live Rust
--------------------------------------------------------------------------------

DR         Peak         RMS     Duration Track
--------------------------------------------------------------------------------
DR13      -2.28 dB   -18.13 dB      5:03 01-Sugar Mountain
DR12      -4.30 dB   -18.78 dB      3:01 02-I Am A Child
DR12      -3.20 dB   -18.28 dB      3:16 03-Comes A Time
DR11      -3.14 dB   -17.98 dB      3:49 04-After The Gold Rush
DR11      -5.46 dB   -19.78 dB      4:14 05-My My, Hey Hey (Out Of The Blue)
DR13      -0.17 dB   -14.49 dB      3:51 06-When You Dance I Can Really Love
DR13      -0.44 dB   -14.79 dB      4:53 07-The Loner
DR11      -2.55 dB   -17.37 dB      3:07 08-The Needle And The Damage Done
DR12      -0.82 dB   -15.39 dB      2:52 09-Lotta Love
DR12       0.00 dB   -14.16 dB      4:55 10-Sedan Delivery
DR11      -1.25 dB   -14.31 dB      5:50 11-Powderfinger
DR13      -0.07 dB   -15.60 dB      7:28 12-Cortez The Killer
DR13      -0.15 dB   -14.67 dB      3:25 13-Cinammon Girl
DR12      -1.46 dB   -15.73 dB      7:49 14-Like A Hurricane
DR13      -1.06 dB   -15.49 dB      5:09 15-Hey Hey, My My (Into The Black)
DR12      -0.39 dB   -14.78 dB      7:14 16-Tonight's The Night
--------------------------------------------------------------------------------

Number of tracks:  16
Official DR value: DR12

Samplerate:        192000 Hz
Channels:          2
Bits per sample:   24
Bitrate:           5190 kbps
Codec:             FLAC
================================================================================
->
=========================================================================================================================================================
->
Rust Never Sleeps (1979) {2014 Remaster}
->
foobar2000 1.5 / Dynamic Range Meter 1.1.1
log date: 2020-03-05 07:24:36

--------------------------------------------------------------------------------
Analyzed: Neil Young & Crazy Horse / Rust Never Sleeps
--------------------------------------------------------------------------------

DR         Peak         RMS     Duration Track
--------------------------------------------------------------------------------
DR11      -3.16 dB   -18.18 dB      3:46 01-My My, Hey Hey (Out Of The Blue)
DR12      -3.09 dB   -17.73 dB      5:39 02-Thrasher
DR13      -2.65 dB   -19.81 dB      2:32 03-Ride My Llama
DR11      -1.40 dB   -16.00 dB      3:24 04-Pocahontas
DR13      -1.25 dB   -17.22 dB      3:49 05-Sail Away
DR13       0.00 dB   -15.13 dB      5:30 06-Powderfinger
DR11      -1.12 dB   -13.74 dB      3:50 07-Welfare Mothers
DR13       0.00 dB   -14.12 dB      4:39 08-Sedan Delivery
DR11      -0.28 dB   -13.84 dB      5:14 09-Hey Hey, My My (Into The Black)
--------------------------------------------------------------------------------

Number of tracks:  9
Official DR value: DR12

Samplerate:        192000 Hz
Channels:          2
Bits per sample:   24
Bitrate:           5007 kbps
Codec:             FLAC
================================================================================
->
=========================================================================================================================================================
->
Re-Ac-Tor (1981) {2016 Remaster}
->
foobar2000 1.5 / Dynamic Range Meter 1.1.1
log date: 2020-03-05 07:24:55

--------------------------------------------------------------------------------
Analyzed: Neil Young & Crazy Horse / Re-ac-tor
--------------------------------------------------------------------------------

DR         Peak         RMS     Duration Track
--------------------------------------------------------------------------------
DR13      -0.57 dB   -15.61 dB      3:33 01-Opera Star
DR12      -1.45 dB   -15.62 dB      4:19 02-Surfer Joe And Moe The Sleaze
DR13      -1.79 dB   -16.43 dB      9:15 03-T-Bone
DR11      -2.33 dB   -15.12 dB      2:20 04-Get Back On It
DR10      -3.04 dB   -15.40 dB      4:12 05-Southern Pacific
DR12      -0.96 dB   -15.76 dB      3:12 06-Motor City
DR12      -0.26 dB   -16.03 dB      4:38 07-Rapid Transit
DR12      -0.05 dB   -14.22 dB      7:41 08-Shots
--------------------------------------------------------------------------------

Number of tracks:  8
Official DR value: DR12

Samplerate:        96000 Hz
Channels:          2
Bits per sample:   24
Bitrate:           3086 kbps
Codec:             FLAC
================================================================================
->
=========================================================================================================================================================
->
This Note's For You (1988) {2019 Remaster}
->
foobar2000 1.5 / Dynamic Range Meter 1.1.1
log date: 2020-03-05 07:25:13

--------------------------------------------------------------------------------
Analyzed: Neil Young / This Note's for You
--------------------------------------------------------------------------------

DR         Peak         RMS     Duration Track
--------------------------------------------------------------------------------
DR8        0.00 dB    -9.34 dB      6:28 01-Ten Men Workin'
DR9       -0.01 dB   -11.44 dB      2:06 02-This Note's for You
DR12      -0.09 dB   -16.62 dB      4:18 03-Coupe de Ville
DR7       -0.55 dB    -9.22 dB      3:13 04-Life in the City
DR11       0.00 dB   -13.26 dB      5:54 05-Twilight
DR9        0.00 dB   -10.69 dB      2:39 06-Married Man
DR9       -0.02 dB   -10.75 dB      2:37 07-Sunny Inside
DR11      -0.10 dB   -13.65 dB      2:58 08-Can't Believe Your Lyin'
DR8        0.00 dB    -9.54 dB      3:05 09-Hey Hey
DR11      -0.09 dB   -13.13 dB      6:01 10-One Thing
--------------------------------------------------------------------------------

Number of tracks:  10
Official DR value: DR10

Samplerate:        96000 Hz
Channels:          2
Bits per sample:   24
Bitrate:           2642 kbps
Codec:             FLAC
================================================================================
->
=========================================================================================================================================================
->
Greatest Hits (2004) {2016 Remaster}
->
foobar2000 1.5 / Dynamic Range Meter 1.1.1
log date: 2020-03-05 07:26:11

--------------------------------------------------------------------------------
Analyzed: Neil Young / Greatest Hits
--------------------------------------------------------------------------------

DR         Peak         RMS     Duration Track
--------------------------------------------------------------------------------
DR10      -1.15 dB   -12.89 dB      9:19 01-Down By The River (with Crazy Horse)
DR10      -0.97 dB   -13.23 dB     10:08 02-Cowgirl In The Sand (with Crazy Horse)
DR9       -1.52 dB   -12.49 dB      3:02 03-Cinnamon Girl (with Crazy Horse)
DR12      -0.74 dB   -15.62 dB      3:41 04-Helpless (Crosby, Stills, Nash & Young)
DR10      -1.88 dB   -14.74 dB      3:49 05-After The Gold Rush
DR11      -0.01 dB   -13.26 dB      3:11 06-Only Love Can Break Your Heart
DR10      -0.01 dB   -12.23 dB      5:34 07-Southern Man
DR10      -0.20 dB   -12.37 dB      3:02 08-Ohio (Crosby, Stills, Nash & Young)
DR13      -1.04 dB   -18.15 dB      2:13 09-The Needle And The Damage Done
DR12      -0.62 dB   -16.61 dB      3:25 10-Old Man (with The Stray Gators)
DR12      -0.60 dB   -15.14 dB      3:10 11-Heart Of Gold (with The Stray Gators)
DR11      -0.22 dB   -12.66 dB      8:24 12-Like A Hurricane (with Crazy Horse)
DR13      -0.01 dB   -15.88 dB      3:08 13-Comes A Time
DR11      -0.41 dB   -13.66 dB      5:17 14-Hey Hey, My My (Into The Black) (with Crazy Horse)
DR11       0.00 dB   -12.38 dB      4:44 15-Rockin' In The Free World
DR12      -0.22 dB   -16.10 dB      5:03 16-Harvest Moon
--------------------------------------------------------------------------------

Number of tracks:  16
Official DR value: DR11

Samplerate:        192000 Hz
Channels:          2
Bits per sample:   24
Bitrate:           4469 kbps
Codec:             FLAC
================================================================================
->
=========================================================================================================================================================
->
Prairie Wind (2005) {2016 Remaster}
->
foobar2000 1.5 / Dynamic Range Meter 1.1.1
log date: 2020-03-05 07:26:33

--------------------------------------------------------------------------------
Analyzed: Neil Young / Prairie Wind
--------------------------------------------------------------------------------

DR         Peak         RMS     Duration Track
--------------------------------------------------------------------------------
DR13      -0.46 dB   -15.66 dB      4:36 01-The Painter
DR12      -0.87 dB   -14.61 dB      5:46 02-No Wonder
DR11      -0.99 dB   -14.17 dB      3:35 03-Falling off of the Face of the Earth
DR11      -0.16 dB   -12.75 dB      3:47 04-Far from Home
DR12      -1.04 dB   -14.70 dB      6:32 05-It's a Dream
DR11      -0.29 dB   -12.76 dB      7:35 06-Prairie Wind
DR13      -0.22 dB   -14.45 dB      4:32 07-Here for You
DR12      -1.06 dB   -14.88 dB      5:33 08-This Old Guitar
DR12      -0.09 dB   -13.75 dB      6:09 09-He Was the King
DR10      -2.67 dB   -15.66 dB      4:06 10-When God Made Me
--------------------------------------------------------------------------------

Number of tracks:  10
Official DR value: DR12

Samplerate:        96000 Hz
Channels:          2
Bits per sample:   24
Bitrate:           2733 kbps
Codec:             FLAC
================================================================================
->
=========================================================================================================================================================
->
Living With War (2006) {2016 Remaster}
->
foobar2000 1.5 / Dynamic Range Meter 1.1.1
log date: 2020-03-05 07:26:48

--------------------------------------------------------------------------------
Analyzed: Neil Young / Living with War
--------------------------------------------------------------------------------

DR         Peak         RMS     Duration Track
--------------------------------------------------------------------------------
DR13      -0.08 dB   -15.49 dB      3:23 01-After the Garden
DR13      -0.34 dB   -15.13 dB      5:04 02-Living with War
DR13      -2.45 dB   -17.57 dB      5:48 03-The Restless Consumer
DR14      -0.37 dB   -16.85 dB      4:53 04-Shock and Awe
DR13      -1.64 dB   -17.00 dB      2:26 05-Families
DR14      -1.38 dB   -17.82 dB      3:42 06-Flags of Freedom
DR14      -1.33 dB   -16.98 dB      5:10 07-Let's Impeach the President
DR14      -1.84 dB   -18.83 dB      4:03 08-Lookin' for a Leader
DR14      -2.84 dB   -19.62 dB      4:26 09-Roger and Out
DR12      -1.44 dB   -19.51 dB      2:57 10-America the Beautiful
--------------------------------------------------------------------------------

Number of tracks:  10
Official DR value: DR13

Samplerate:        96000 Hz
Channels:          2
Bits per sample:   24
Bitrate:           2574 kbps
Codec:             FLAC
================================================================================
->
=========================================================================================================================================================
->
Fork In The Road (2009) {2015 Remaster}
->
foobar2000 1.5 / Dynamic Range Meter 1.1.1
log date: 2020-03-05 07:27:04

--------------------------------------------------------------------------------
Analyzed: Neil Young / Fork in the Road
--------------------------------------------------------------------------------

DR         Peak         RMS     Duration Track
--------------------------------------------------------------------------------
DR11      -1.02 dB   -13.95 dB      4:13 01-When Worlds Collide
DR13      -0.40 dB   -15.82 dB      3:11 02-Fuel Line
DR11      -0.07 dB   -13.78 dB      3:31 03-Just Singing A Song
DR12      -0.20 dB   -14.04 dB      4:18 04-Johnny Magic
DR11      -0.01 dB   -12.84 dB      4:37 05-Cough Up The Bucks
DR13      -0.05 dB   -13.71 dB      3:08 06-Get Behind The Wheel
DR14      -0.06 dB   -16.92 dB      3:21 07-Off The Road
DR12      -0.05 dB   -13.61 dB      3:36 08-Hit The Road
DR13      -1.17 dB   -17.26 dB      3:01 09-Light A Candle
DR13      -0.02 dB   -14.82 dB      5:46 10-Fork In The Road
--------------------------------------------------------------------------------

Number of tracks:  10
Official DR value: DR12

Samplerate:        96000 Hz
Channels:          2
Bits per sample:   24
Bitrate:           2971 kbps
Codec:             FLAC
================================================================================
->
=========================================================================================================================================================
->
Le Noise (2010) {2016 Remaster}
->
foobar2000 1.5 / Dynamic Range Meter 1.1.1
log date: 2020-03-05 07:27:11

--------------------------------------------------------------------------------
Analyzed: Neil Young / Le Noise
--------------------------------------------------------------------------------

DR         Peak         RMS     Duration Track
--------------------------------------------------------------------------------
DR9       -1.14 dB   -11.92 dB      4:26 01-Walk With Me
DR10      -3.68 dB   -15.90 dB      3:57 02-Sign Of Love
DR9       -2.16 dB   -12.73 dB      3:29 03-Someone's Gonna Rescue You
DR13      -0.42 dB   -16.72 dB      5:37 04-Love And War
DR11      -1.48 dB   -14.91 dB      4:14 05-Angry World
DR10      -1.30 dB   -13.71 dB      5:31 06-Hitchhiker
DR11      -0.97 dB   -15.14 dB      7:12 07-Peaceful Valley Boulevard
DR9       -0.72 dB   -13.84 dB      3:40 08-Rumblin'
--------------------------------------------------------------------------------

Number of tracks:  8
Official DR value: DR10

Samplerate:        44100 Hz
Channels:          2
Bits per sample:   24
Bitrate:           1315 kbps
Codec:             FLAC
================================================================================
->
=========================================================================================================================================================
->
A Letter Home (2014)
->
foobar2000 1.5 / Dynamic Range Meter 1.1.1
log date: 2020-03-05 07:27:47

--------------------------------------------------------------------------------
Analyzed: Neil Young / A Letter Home
--------------------------------------------------------------------------------

DR         Peak         RMS     Duration Track
--------------------------------------------------------------------------------
DR16      -0.20 dB   -18.76 dB      2:21 01-A Letter Home Intro
DR16      -0.71 dB   -20.72 dB      4:05 02-Changes
DR14      -0.20 dB   -17.72 dB      3:31 03-Girl From The North Country
DR13      -0.20 dB   -18.31 dB      5:03 04-Needle Of Death
DR15      -0.20 dB   -17.99 dB      4:28 05-Early Morning Rain
DR15      -2.47 dB   -21.80 dB      2:22 06-Crazy
DR15      -0.20 dB   -17.92 dB      3:16 07-Reason To Believe
DR14      -0.20 dB   -15.98 dB      2:25 08-On The Road Again
DR14      -0.20 dB   -16.61 dB      4:05 09-If You Could Read My Mind
DR15      -0.20 dB   -17.59 dB      2:24 10-Since I Met You Baby
DR15      -0.20 dB   -18.24 dB      4:17 11-My Hometown
DR13      -0.81 dB   -18.21 dB      2:35 12-I Wonder If I Care As Much
DR14      -0.44 dB   -16.76 dB      3:39 13-Blowin' In The Wind
DR16      -0.20 dB   -20.46 dB      2:24 14-Crazy (Piano Version)
--------------------------------------------------------------------------------

Number of tracks:  14
Official DR value: DR15

Samplerate:        192000 Hz
Channels:          2
Bits per sample:   24
Bitrate:           5772 kbps
Codec:             FLAC
================================================================================
->
=========================================================================================================================================================
->
Mixed Pages Of Storytone (2014)
->
foobar2000 1.5 / Dynamic Range Meter 1.1.1
log date: 2020-03-05 07:28:05

--------------------------------------------------------------------------------
Analyzed: Neil Young / Mixed Pages of Storytone
--------------------------------------------------------------------------------

DR         Peak         RMS     Duration Track
--------------------------------------------------------------------------------
DR12       0.00 dB   -13.77 dB      2:42 01-Like You Used to Do  (Mixed Pages)
DR12       0.00 dB   -14.47 dB      5:33 02-When I Watch You Sleeping  (Mixed Pages)
DR11       0.00 dB   -13.96 dB      3:12 03-I Want to Drive My Car  (Mixed Pages)
DR11      -0.02 dB   -14.49 dB      4:05 04-Plastic Flowers  (Mixed Pages)
DR11       0.00 dB   -14.84 dB      5:13 05-Glimmer  (Mixed Pages)
DR8       -0.04 dB   -11.26 dB      4:14 06-All Those Dreams  (Mixed Pages)
DR10       0.00 dB   -13.30 dB      4:53 07-Say Hello to Chicago  (Mixed Pages)
DR13       0.00 dB   -16.13 dB      3:24 08-Tumbleweed  (Mixed Pages)
DR9        0.00 dB   -10.12 dB      6:16 09-Who's Gonna Stand Up?  (Mixed Pages)
DR10       0.00 dB   -13.03 dB      3:35 10-I'm Glad I Found You  (Mixed Pages)
--------------------------------------------------------------------------------

Number of tracks:  10
Official DR value: DR11

Samplerate:        96000 Hz
Channels:          2
Bits per sample:   24
Bitrate:           2707 kbps
Codec:             FLAC
================================================================================
->
=========================================================================================================================================================
->
Storytone (2014) {Deluxe Version}
->
foobar2000 1.5 / Dynamic Range Meter 1.1.1
log date: 2020-03-05 07:28:31

--------------------------------------------------------------------------------
Analyzed: Neil Young / Solo Storytone
--------------------------------------------------------------------------------

DR         Peak         RMS     Duration Track
--------------------------------------------------------------------------------
DR11      -2.62 dB   -16.54 dB      4:04 01-Plastic Flowers (Solo, Piano)
DR13      -0.01 dB   -14.84 dB      3:49 02-Who's Gonna Stand Up? (Solo, Guitar)
DR11      -1.71 dB   -15.54 dB      2:23 03-I Want To Drive My Car (Solo, Electric Guitar)
DR12      -1.26 dB   -16.82 dB      3:11 04-Glimmer (Solo, Piano)
DR13      -0.65 dB   -17.34 dB      4:54 05-Say Hello To Chicago (Solo, Electric Guitar)
DR13      -0.03 dB   -16.86 dB      3:22 06-Tumbleweed (Solo, Ukulele)
DR10      -0.45 dB   -13.81 dB      2:39 07-Like You Used To Do (Solo, Electric Guitar)
DR10      -0.40 dB   -15.81 dB      3:22 08-I'm Glad I Found You (Solo, Piano)
DR13      -0.43 dB   -16.52 dB      5:37 09-When I Watch You Sleeping (Solo, Guitar)
DR11      -0.51 dB   -15.94 dB      3:50 10-All Those Dreams (Solo, Guitar)
--------------------------------------------------------------------------------

Number of tracks:  10
Official DR value: DR12

Samplerate:        192000 Hz
Channels:          2
Bits per sample:   24
Bitrate:           5164 kbps
Codec:             FLAC
================================================================================

--------------------------------------------------------------------------------
Analyzed: Neil Young / Storytone
--------------------------------------------------------------------------------

DR         Peak         RMS     Duration Track
--------------------------------------------------------------------------------
DR11       0.00 dB   -13.76 dB      4:06 11-Plastic Flowers (Orchestral)
DR10       0.00 dB   -13.61 dB      4:24 12-Who's Gonna Stand Up? (Orchestral)
DR11       0.00 dB   -13.77 dB      3:11 13-I Want To Drive My Car (Band)
DR11      -1.26 dB   -16.40 dB      5:01 14-Glimmer (Orchestral)
DR10       0.00 dB   -12.28 dB      4:58 15-Say Hello To Chicago (Big Band)
DR10      -2.95 dB   -16.89 dB      3:38 16-Tumbleweed (Orchestral)
DR11       0.00 dB   -13.76 dB      2:41 17-Like You Used To Do (Band)
DR10       0.00 dB   -13.22 dB      3:43 18-I'm Glad I Found You (Orchestral)
DR10       0.00 dB   -13.09 dB      5:31 19-When I Watch You Sleeping (Orchestral)
DR11       0.00 dB   -14.41 dB      4:18 20-All Those Dreams (Orchestral)
--------------------------------------------------------------------------------

Number of tracks:  10
Official DR value: DR11

Samplerate:        192000 Hz
Channels:          2
Bits per sample:   24
Bitrate:           5542 kbps
Codec:             FLAC
================================================================================
->
=========================================================================================================================================================
->
The Monsanto Years (2015)
->
foobar2000 1.5 / Dynamic Range Meter 1.1.1
log date: 2020-03-05 07:29:43

--------------------------------------------------------------------------------
Analyzed: Neil Young + Promise of the Real / The Monsanto Years
--------------------------------------------------------------------------------

DR         Peak         RMS     Duration Track
--------------------------------------------------------------------------------
DR9       -0.10 dB   -10.12 dB      5:53 01-A New Day For Love
DR12      -0.10 dB   -14.12 dB      3:53 02-Wolf Moon
DR9       -0.10 dB   -10.89 dB      6:20 03-People Want to Hear About Love
DR9       -0.10 dB   -10.21 dB      8:18 04-Big Box
DR8       -0.10 dB   -10.50 dB      5:00 05-A Rock Star Bucks a Coffee Shop
DR8       -0.10 dB    -9.02 dB      4:43 06-Workin' Man
DR9       -0.10 dB   -10.77 dB      4:40 07-Rules of Change
DR9       -0.10 dB   -10.36 dB      7:47 08-Monsanto Years
DR9       -0.10 dB   -10.43 dB      4:24 09-If I Don't Know
--------------------------------------------------------------------------------

Number of tracks:  9
Official DR value: DR9

Samplerate:        192000 Hz
Channels:          2
Bits per sample:   24
Bitrate:           5564 kbps
Codec:             FLAC
================================================================================
->
=========================================================================================================================================================
->
Peace Trail (2016)
->
foobar2000 1.5 / Dynamic Range Meter 1.1.1
log date: 2020-03-05 07:30:11

--------------------------------------------------------------------------------
Analyzed: Neil Young / Peace Trail
--------------------------------------------------------------------------------

DR         Peak         RMS     Duration Track
--------------------------------------------------------------------------------
DR13       0.00 dB   -15.21 dB      5:31 01-Peace Trail
DR12      -1.16 dB   -16.52 dB      2:46 02-Can't Stop Workin'
DR14      -0.25 dB   -17.30 dB      5:41 03-Indian Givers
DR15      -0.34 dB   -20.00 dB      4:03 04-Show Me
DR14      -2.44 dB   -18.72 dB      2:30 05-Texas Rangers
DR14      -0.71 dB   -17.77 dB      3:17 06-Terrorist Suicide Hang Gliders
DR14      -0.46 dB   -16.27 dB      5:12 07-John Oaks
DR14      -0.60 dB   -17.88 dB      3:55 08-My Pledge
DR14      -1.30 dB   -19.14 dB      2:53 09-Glass Accident
DR14      -1.18 dB   -18.98 dB      2:34 10-My New Robot
--------------------------------------------------------------------------------

Number of tracks:  10
Official DR value: DR14

Samplerate:        192000 Hz
Channels:          2
Bits per sample:   24
Bitrate:           4775 kbps
Codec:             FLAC
================================================================================
->
=========================================================================================================================================================
->
The Visitor (2017)
->
foobar2000 1.5 / Dynamic Range Meter 1.1.1
log date: 2020-03-05 07:30:31

--------------------------------------------------------------------------------
Analyzed: Neil Young and Promise of the Real / The Visitor
--------------------------------------------------------------------------------

DR         Peak         RMS     Duration Track
--------------------------------------------------------------------------------
DR12       0.00 dB   -14.32 dB      5:48 01-Already Great
DR12      -0.27 dB   -14.72 dB      2:37 02-Fly By Night Deal
DR11      -0.85 dB   -17.52 dB      4:51 03-Almost Always
DR12      -0.85 dB   -14.96 dB      5:13 04-Stand Tall
DR14      -0.43 dB   -18.68 dB      5:54 05-Change of Heart
DR14      -0.25 dB   -15.85 dB      8:21 06-Carnival
DR12      -0.37 dB   -15.67 dB      2:33 07-Diggin' a Hole
DR13      -1.01 dB   -16.36 dB      3:25 08-Children of Destiny
DR14       0.00 dB   -16.29 dB      2:00 09-When Bad Got Good
DR13      -0.53 dB   -16.15 dB     10:32 10-Forever
--------------------------------------------------------------------------------

Number of tracks:  10
Official DR value: DR13

Samplerate:        96000 Hz
Channels:          2
Bits per sample:   24
Bitrate:           2669 kbps
Codec:             FLAC
================================================================================
->
=========================================================================================================================================================
->
Songs For Judy (2018)
->
foobar2000 1.5 / Dynamic Range Meter 1.1.1
log date: 2020-03-05 07:31:31

--------------------------------------------------------------------------------
Analyzed: Neil Young / Songs for Judy - Live (Remastered)
--------------------------------------------------------------------------------

DR         Peak         RMS     Duration Track
--------------------------------------------------------------------------------
DR18      -0.16 dB   -23.19 dB      3:25 01-Songs for Judy (Intro)
DR14      -0.01 dB   -17.62 dB      3:15 02-Too Far Gone
DR12      -0.04 dB   -14.55 dB      2:29 03-No One Seems to Know
DR13      -0.21 dB   -16.26 dB      2:54 04-Heart of Gold
DR13      -0.07 dB   -15.91 dB      2:45 05-White Line
DR12      -0.85 dB   -16.51 dB      2:21 06-Love Is a Rose
DR13      -0.32 dB   -18.08 dB      4:16 07-After the Gold Rush
DR14       0.00 dB   -17.69 dB      3:04 08-Human Highway
DR14      -0.02 dB   -18.26 dB      3:34 09-Tell Me Why
DR13      -0.06 dB   -15.80 dB      3:07 10-Mr. Soul
DR11      -0.96 dB   -14.23 dB      2:30 11-Mellow My Mind
DR11      -1.06 dB   -14.25 dB      3:27 12-Give Me Strength
DR10       0.00 dB   -14.68 dB      4:54 13-A Man Needs a Maid
DR12      -1.53 dB   -16.75 dB      2:22 14-Roll Another Number
DR11      -0.01 dB   -13.27 dB      3:17 15-Journey Through the Past
DR13      -1.34 dB   -16.75 dB      2:43 16-Harvest
DR12      -1.49 dB   -15.88 dB      3:31 17-Campaigner
DR13      -0.43 dB   -17.20 dB      5:18 18-Old Laughing Lady
DR12      -1.95 dB   -16.49 dB      3:53 19-The Losing End
DR12      -1.86 dB   -18.71 dB      3:54 20-Here We Are In the Years
DR12      -1.42 dB   -16.65 dB      2:28 21-The Needle and the Damage Done
DR12      -1.06 dB   -17.10 dB      3:49 22-Pocahontas
DR14      -0.11 dB   -18.28 dB      6:08 23-Sugar Mountain
--------------------------------------------------------------------------------

Number of tracks:  23
Official DR value: DR13

Samplerate:        176400 Hz
Channels:          2
Bits per sample:   24
Bitrate:           5361 kbps
Codec:             FLAC
================================================================================
->
=========================================================================================================================================================
->
Colorado (2019)
->
foobar2000 1.5 / Dynamic Range Meter 1.1.1
log date: 2020-03-05 07:31:49

--------------------------------------------------------------------------------
Analyzed: Neil Young / Colorado
--------------------------------------------------------------------------------

DR         Peak         RMS     Duration Track
--------------------------------------------------------------------------------
DR14      -1.49 dB   -18.43 dB      3:02 01-Think Of Me
DR14       0.00 dB   -15.94 dB     13:38 02-She Showed Me Love
DR12      -2.69 dB   -16.65 dB      4:04 03-Olden Days
DR14       0.00 dB   -15.81 dB      4:15 04-Help Me Lose My Mind
DR14      -1.44 dB   -18.94 dB      3:48 05-Green Is Blue
DR13      -0.89 dB   -16.01 dB      3:44 06-Shut It Down
DR13      -2.62 dB   -18.65 dB      6:00 07-Milky Way
DR12      -2.46 dB   -18.18 dB      2:45 08-Eternity
DR12      -2.49 dB   -17.94 dB      3:36 09-Rainbow Of Colors
DR12      -5.26 dB   -20.72 dB      5:36 10-I Do
--------------------------------------------------------------------------------

Number of tracks:  10
Official DR value: DR13

Samplerate:        96000 Hz
Channels:          2
Bits per sample:   24
Bitrate:           2459 kbps
Codec:             FLAC
================================================================================
->
=========================================================================================================================================================
->
Tuscaloosa (2019)
->
foobar2000 1.5 / Dynamic Range Meter 1.1.1
log date: 2020-03-05 07:32:08

--------------------------------------------------------------------------------
Analyzed: Neil Young / Tuscaloosa (Live)
--------------------------------------------------------------------------------

DR         Peak         RMS     Duration Track
--------------------------------------------------------------------------------
DR13      -3.58 dB   -21.78 dB      3:57 01-Here We Are in the Years 
DR15      -3.04 dB   -22.00 dB      4:42 02-After the Gold Rush 
DR14      -0.14 dB   -17.24 dB      5:29 03-Out on the Weekend 
DR14      -1.54 dB   -18.36 dB      4:13 04-Harvest 
DR13      -2.29 dB   -19.07 dB      4:14 05-Old Man 
DR13      -2.62 dB   -18.45 dB      3:48 06-Heart of Gold 
DR9       -2.36 dB   -13.50 dB      6:10 07-Time Fades Away 
DR11      -0.97 dB   -14.06 dB      5:00 08-Lookout Joe 
DR10      -1.38 dB   -13.86 dB      3:00 09-New Mama 
DR11      -0.83 dB   -14.28 dB      3:51 10-Alabama 
DR11      -1.33 dB   -15.77 dB      8:09 11-Don't Be Denied 
--------------------------------------------------------------------------------

Number of tracks:  11
Official DR value: DR12

Samplerate:        96000 Hz
Channels:          2
Bits per sample:   24
Bitrate:           3139 kbps
Codec:             FLAC
================================================================================


Create a new paste based on this one


Comments: