[ create a new paste ] login | about

Link: http://codepad.org/m6QJ7vyw    [ raw code | fork ]

Plain Text, pasted on Nov 20:
foobar2000 1.2.2 / Dynamic Range Meter 1.1.1
log date: 2013-02-06 15:37:07

--------------------------------------------------------------------------------
Analyzed: Ry Cooder & V.M. Bhatt / A Meeting By The River (2008 AP Hybrid SACD)
--------------------------------------------------------------------------------

DR         Peak         RMS     Duration Track
--------------------------------------------------------------------------------
DR19      -8.05 dB   -32.22 dB     10:08 01-A Meeting By The River
DR17     -10.41 dB   -34.68 dB     11:58 02-Longing
DR17      -5.88 dB   -26.94 dB      9:59 03-Ganges Delta Blues
DR15     -15.84 dB   -34.98 dB      7:46 04-Isa Lei
--------------------------------------------------------------------------------

Number of tracks:  4
Official DR value: DR17

Samplerate:        88200 Hz
Channels:          2
Bits per sample:   24
Bitrate:           2180 kbps
Codec:             FLAC
================================================================================




Create a new paste based on this one


Comments: