[ create a new paste ] login | about

Link: http://codepad.org/m8mfHhti    [ raw code | fork ]

Plain Text, pasted on May 15:
foobar2000 1.4.1 / Dynamic Range Meter 1.1.1
log date: 2019-05-15 10:42:22

--------------------------------------------------------------------------------
Analyzed: Woody Herman / The Fourth Herd
--------------------------------------------------------------------------------

DR         Peak         RMS     Duration Track
--------------------------------------------------------------------------------
DR12      -0.05 dB   -14.15 dB      2:57 01-Panatela
DR11      -1.25 dB   -15.54 dB      2:48 02-Lament For Linda
DR11      -0.81 dB   -14.77 dB      2:37 03-Misery, Stay Away From My Door
DR12      -0.90 dB   -15.48 dB      3:22 04-In A Misty Mood
DR11      -0.85 dB   -13.97 dB      2:36 05-Catty's Corner
DR11      -1.50 dB   -14.89 dB      2:30 06-The Thirteenth Instant
DR12      -0.47 dB   -15.12 dB      2:34 07-The Magpie
DR12      -0.06 dB   -16.46 dB      2:38 08-Blues For Indian Jim
DR12      -2.14 dB   -16.32 dB      3:22 09-The Devil And The Stoker
DR13      -0.93 dB   -16.62 dB      2:34 10-The Swing Machine
DR11      -4.82 dB   -18.98 dB      2:54 11-Summer Nights
DR12      -1.79 dB   -16.07 dB      3:08 12-Johnny On The Spot
--------------------------------------------------------------------------------

Number of tracks:  12
Official DR value: DR12

Samplerate:        44100 Hz
Channels:          2
Bits per sample:   16
Bitrate:           824 kbps
Codec:             FLAC
================================================================================




Create a new paste based on this one


Comments: