[ create a new paste ] login | about

Link: http://codepad.org/m90d7xNn    [ raw code | fork ]

Plain Text, pasted on Nov 25:
[CUETools log; Date: 11/25/2016 6:40:33 AM; Version: 2.1.5]
Pregap length 00:00:32.
[CTDB TOCID: dZ4Q6.qdYFBOk0b5qCgB3CPh_jU-] found.
Track | CTDB Status
  1   | (32/32) Accurately ripped
  2   | (32/32) Accurately ripped
  3   | (32/32) Accurately ripped
  4   | (31/32) Accurately ripped
  5   | (31/32) Accurately ripped
  6   | (32/32) Accurately ripped
  7   | (32/32) Accurately ripped
  8   | (32/32) Accurately ripped
  9   | (32/32) Accurately ripped
 10   | (32/32) Accurately ripped
[AccurateRip ID: 000f61c6-007ac043-8909750a] found.
Track   [  CRC   |   V2   ] Status
 01     [5a31c0b4|f857bb42] (02+06/72) Accurately ripped
 02     [94105e67|dd36216a] (02+06/72) Accurately ripped
 03     [ba2df850|e7a44818] (02+06/72) Accurately ripped
 04     [d15b12c7|4d2cb165] (02+06/73) Accurately ripped
 05     [45a62302|657c6070] (02+06/72) Accurately ripped
 06     [965132ad|07378aa5] (02+06/72) Accurately ripped
 07     [606ac97a|70c7a43b] (02+06/72) Accurately ripped
 08     [1ab2e392|f2fedcdf] (02+06/73) Accurately ripped
 09     [2d83f1da|e7247390] (02+06/73) Accurately ripped
 10     [153d4e04|04772afb] (02+06/74) Accurately ripped
Offsetted by -1974:
 01     [ff541e48] (16/72) Accurately ripped
 02     [e6cd1821] (16/72) Accurately ripped
 03     [d8494408] (16/72) Accurately ripped
 04     [746abc58] (16/73) Accurately ripped
 05     [2cfdaeb3] (16/72) Accurately ripped
 06     [905d75f9] (16/72) Accurately ripped
 07     [c1d51ace] (16/72) Accurately ripped
 08     [abb4c898] (16/73) Accurately ripped
 09     [0f6595c6] (16/73) Accurately ripped
 10     [5b48a6ea] (16/74) Accurately ripped
Offsetted by -30:
 01     [535dd978] (00/72) No match (V2 was not tested)
 02     [06ed1bf9] (00/72) No match (V2 was not tested)
 03     [979f3628] (00/72) No match (V2 was not tested)
 04     [9b63be74] (00/73) No match (V2 was not tested)
 05     [be3a62b7] (00/72) No match (V2 was not tested)
 06     [49317b49] (00/72) No match (V2 was not tested)
 07     [7b934efe] (00/72) No match (V2 was not tested)
 08     [af3031c0] (00/73) No match (V2 was not tested)
 09     [b4732496] (00/73) No match (V2 was not tested)
 10     [6e3b2492] (00/74) No match (V2 was not tested)
Offsetted by 1335:
 01     [0a0772a2] (00/72) No match
 02     [9cb16a86] (00/72) No match (V2 was not tested)
 03     [3bfeb844] (00/72) No match
 04     [fb7713fe] (00/73) No match
 05     [51d636ee] (00/72) No match
 06     [fe54938f] (00/72) No match
 07     [27df9408] (00/72) No match
 08     [caeacc93] (00/73) No match
 09     [38efa02c] (00/73) No match
 10     [1d1d8255] (00/74) No match
Offsetted by 1478:
 01     [331ba740] (00/72) No match (V2 was not tested)
 02     [df95383d] (00/72) No match (V2 was not tested)
 03     [0b62ef58] (00/72) No match (V2 was not tested)
 04     [3151f3dc] (00/73) No match (V2 was not tested)
 05     [b0388e23] (00/72) No match (V2 was not tested)
 06     [29b00641] (00/72) No match (V2 was not tested)
 07     [aef3c246] (00/72) No match (V2 was not tested)
 08     [64fbe8fc] (00/73) No match (V2 was not tested)
 09     [24aea5ce] (00/73) No match (V2 was not tested)
 10     [d2c9f28e] (00/74) No match (V2 was not tested)
Offsetted by 1688:
 01     [62e6f9e4] (00/72) No match (V2 was not tested)
 02     [bb8c093f] (00/72) No match (V2 was not tested)
 03     [fd4a3e70] (00/72) No match (V2 was not tested)
 04     [67f7f172] (00/73) No match (V2 was not tested)
 05     [dea673f7] (00/72) No match (V2 was not tested)
 06     [458e09fd] (00/72) No match (V2 was not tested)
 07     [f0d81baa] (00/72) No match (V2 was not tested)
 08     [558ec5ba] (00/73) No match (V2 was not tested)
 09     [742442aa] (00/73) No match (V2 was not tested)
 10     [63d914ac] (00/74) No match (V2 was not tested)

Track Peak [ CRC32  ] [W/O NULL] [  LOG   ]
 --  100.0 [B7380AC3] [D7F0CDE2]   CRC32   
 01   98.3 [9C19C4F1] [F01357D1]           
 02   93.1 [EF3CF71B] [A4281446]           
 03   96.2 [E1AB35C3] [E763126A]           
 04   92.3 [A2072B12] [CB91734D]           
 05   92.1 [206BEF5B] [25C98EC3]           
 06   98.2 [60A9F3A7] [3FA12B3B]           
 07   99.8 [3674F865] [F3357A44]           
 08  100.0 [A11B2763] [9214179D]           
 09   96.3 [F2D6E2F6] [B7C0D648]           
 10   98.3 [0B0BC3D4] [41EC1646]           



Create a new paste based on this one


Comments: