[ create a new paste ] login | about

Link: http://codepad.org/m9YBKaJL    [ raw code | fork ]

Plain Text, pasted on Jul 13:
foobar2000 1.3.17 / Dynamic Range Meter 1.1.1
log date: 2018-07-13 09:20:20

--------------------------------------------------------------------------------
Analyzed: The Beatles / 1+ (BD 1 - 5.1 Surround)
--------------------------------------------------------------------------------

DR         Peak         RMS     Duration Track
--------------------------------------------------------------------------------
DR10      -0.02 dB   -13.61 dB      2:25 01-Love Me Do
DR10      -0.01 dB   -12.43 dB      1:57 02-From Me To You
DR10      -0.01 dB   -13.23 dB      2:22 03-She Loves You
DR10      -0.02 dB   -13.13 dB      2:32 04-I Want To Hold Your Hand
DR10      -0.03 dB   -13.18 dB      2:13 05-Can't Buy Me Love
DR10      -0.01 dB   -12.83 dB      2:38 06-A Hard Day's Night
DR11      -0.01 dB   -14.63 dB      2:21 07-I Feel Fine
DR10      -0.02 dB   -13.08 dB      2:43 08-Eight Days A Week
DR10      -0.01 dB   -13.15 dB      3:08 09-Ticket To Ride
DR11      -0.02 dB   -13.18 dB      2:19 10-Help!
DR8       -0.02 dB   -13.92 dB      2:27 11-Yesterday
DR11      -0.02 dB   -13.63 dB      2:45 12-Day Tripper
DR10      -0.02 dB   -13.58 dB      2:15 13-We Can Work It Out
DR10      -0.01 dB   -13.33 dB      2:26 14-Paperback Writer
DR11      -0.01 dB   -14.66 dB      2:39 15-Yellow Submarine
DR11      -0.02 dB   -15.74 dB      2:06 16-Eleanor Rigby
DR11      -0.01 dB   -13.10 dB      3:03 17-Penny Lane
DR12      -0.02 dB   -14.57 dB      3:47 18-All You Need Is Love
DR10       0.00 dB   -13.07 dB      3:27 19-Hello Goodbye
DR10      -0.01 dB   -12.92 dB      2:28 20-Lady Madonna
DR10      -0.02 dB   -12.48 dB      7:59 21-Hey Jude
DR11      -0.12 dB   -12.85 dB      3:11 22-Get Back
DR11      -0.02 dB   -12.55 dB      2:59 23-The Ballad Of John And Yoko
DR10      -0.02 dB   -14.35 dB      3:02 24-Something
DR10      -0.02 dB   -14.16 dB      4:16 25-Come Together
DR11      -0.02 dB   -13.49 dB      3:56 26-Let It Be
DR12      -0.01 dB   -16.31 dB      3:37 27-The Long And Winding Road
--------------------------------------------------------------------------------

Number of tracks:  27
Official DR value: DR10

Samplerate:        96000 Hz
Channels:          6
Bits per sample:   24
Bitrate:           7357 kbps
Codec:             FLAC
================================================================================


foobar2000 1.3.17 / Dynamic Range Meter 1.1.1
log date: 2018-07-13 09:22:26

--------------------------------------------------------------------------------
Analyzed: The Beatles / 1+ (BD 2 - 5.1 Surround)
--------------------------------------------------------------------------------

DR         Peak         RMS     Duration Track
--------------------------------------------------------------------------------
DR10      -0.02 dB   -12.98 dB      2:34 01-Twist & Shout
DR10      -0.01 dB   -13.50 dB      2:46 02-Baby It's You
DR12      -0.01 dB   -15.50 dB      2:14 03-Words Of Love
DR10      -0.10 dB   -12.80 dB      2:05 04-Please Please Me
DR11      -0.01 dB   -14.89 dB      2:32 05-I Feel Fine (Alternate Version)
DR11      -0.02 dB   -13.70 dB      2:49 06-Day Tripper (Alternate Version 1)
DR11      -0.01 dB   -13.76 dB      2:48 07-Day Tripper (Alternate Version 2)
DR10      -0.02 dB   -13.77 dB      2:20 08-We Can Work It Out (Alternate Version)
DR10      -0.01 dB   -13.72 dB      2:40 09-Paperback Writer (Alternate Version)
DR11      -0.01 dB   -13.36 dB      3:03 10-Rain (Alternate Version 1)
DR11      -0.01 dB   -13.29 dB      3:03 11-Rain (Alternate Version 2)
DR11      -0.02 dB   -14.83 dB      4:18 12-Strawberry Fields Forever
DR9       -0.01 dB   -13.06 dB      2:38 13-Within You Without You - Tomorrow Never Knows
DR11      -0.02 dB   -15.19 dB      5:10 14-A Day In The Life
DR10      -0.02 dB   -13.20 dB      3:32 15-Hello, Goodbye (Alternate Version 1)
DR10      -0.02 dB   -13.20 dB      3:32 16-Hello, Goodbye (Alternate Version 2)
DR11      -0.02 dB   -14.53 dB      3:19 17-Hey Bulldog
DR11      -0.01 dB   -13.52 dB      8:10 18-Hey Jude (Alternate Version)
DR10      -0.01 dB   -11.55 dB      3:24 19-Revolution
DR11      -0.02 dB   -12.79 dB      2:41 20-Get Back (Alternate Version)
DR10      -0.02 dB   -13.09 dB      3:20 21-Don't Let Me Down
DR11      -0.02 dB   -14.31 dB      5:01 22-Free As A Bird
DR10      -0.02 dB   -13.30 dB      3:53 23-Real Love
--------------------------------------------------------------------------------

Number of tracks:  23
Official DR value: DR10

Samplerate:        96000 Hz
Channels:          6
Bits per sample:   24
Bitrate:           7678 kbps
Codec:             FLAC
================================================================================




Create a new paste based on this one


Comments: