[ create a new paste ] login | about

Link: http://codepad.org/m9vnYnTH    [ raw code | fork ]

Plain Text, pasted on May 15:
foobar2000 1.4.1 / Dynamic Range Meter 1.1.1
log date: 2019-05-15 11:55:44

--------------------------------------------------------------------------------
Analyzed: Rod Stewart / Blondes Have More Fun
--------------------------------------------------------------------------------

DR         Peak         RMS     Duration Track
--------------------------------------------------------------------------------
DR14      -0.05 dB   -16.38 dB      5:28 01-Da Ya Think I'm Sexy?
DR12      -1.40 dB   -15.86 dB      2:36 02-Dirty Weekend
DR14      -0.71 dB   -17.83 dB      4:37 03-Ain't Love A Bitch
DR11      -3.88 dB   -18.65 dB      4:21 04-The Best Days Of My Life
DR13      -2.14 dB   -17.58 dB      4:29 05-Is That The Thanks I Get?
DR14      -1.84 dB   -19.08 dB      4:16 06-Attractive Female Wanted
DR13      -0.20 dB   -15.12 dB      3:44 07-Blondes (Have More Fun)
DR14      -0.06 dB   -16.98 dB      4:03 08-Last Summer
DR13      -0.06 dB   -15.58 dB      4:25 09-Standin' In The Shadows Of Love
DR15      -0.73 dB   -19.02 dB      4:50 10-Scarred & Scared
--------------------------------------------------------------------------------

Number of tracks:  10
Official DR value: DR13

Samplerate:        96000 Hz
Channels:          2
Bits per sample:   24
Bitrate:           2739 kbps
Codec:             FLAC
================================================================================




Create a new paste based on this one


Comments: