[ create a new paste ] login | about

Link: http://codepad.org/mA2EI75v    [ raw code | fork ]

Plain Text, pasted on Jun 14:
foobar2000 1.5 / Dynamic Range Meter 1.1.1
log date: 2020-06-14 02:22:46

--------------------------------------------------------------------------------
Analyzed: Liam Gallagher / MTV Unplugged (Live At Hull City Hall)
--------------------------------------------------------------------------------

DR         Peak         RMS     Duration Track
--------------------------------------------------------------------------------
DR5       -0.09 dB    -6.89 dB      4:09 01-Wall Of Glass  (MTV Unplugged Live at Hull City Hall)
DR6       -0.08 dB    -7.04 dB      4:57 02-Some Might Say  (MTV Unplugged Live at Hull City Hall)
DR7       -0.08 dB    -7.87 dB      3:30 03-Now That I've Found You  (MTV Unplugged Live at Hull City Hall)
DR5       -0.09 dB    -6.40 dB      3:33 04-One of Us  (MTV Unplugged Live at Hull City Hall)
DR6       -0.07 dB    -6.77 dB      5:57 05-Stand By Me  (MTV Unplugged Live at Hull City Hall)
DR7       -0.07 dB    -8.22 dB      4:30 06-Sad Song  (MTV Unplugged Live at Hull City Hall)
DR5       -0.08 dB    -6.58 dB      5:05 07-Cast No Shadow  (MTV Unplugged Live at Hull City Hall)
DR6       -0.07 dB    -8.41 dB      3:56 08-Once  (MTV Unplugged Live at Hull City Hall)
DR5       -0.07 dB    -6.74 dB      3:54 09-Gone  (MTV Unplugged Live at Hull City Hall)
DR7       -0.09 dB    -9.15 dB      3:59 10-Champagne Supernova  (MTV Unplugged Live at Hull City Hall)
--------------------------------------------------------------------------------

Number of tracks:  10
Official DR value: DR6

Samplerate:        44100 Hz
Channels:          2
Bits per sample:   24
Bitrate:           1639 kbps
Codec:             FLAC
================================================================================




Create a new paste based on this one


Comments: