[ create a new paste ] login | about

Link: http://codepad.org/mDPsVYm0    [ raw code | fork ]

Plain Text, pasted on Dec 11:
foobar2000 1.5 / Dynamic Range Meter 1.1.1
log date: 2019-12-11 19:53:30

--------------------------------------------------------------------------------
Analyzed: Herbie Hancock / Gershwin's World
--------------------------------------------------------------------------------

DR         Peak         RMS     Duration Track
--------------------------------------------------------------------------------
DR12      -0.13 dB   -14.27 dB      0:58 01-Overture (Fascinating Rhythm)
DR11      -0.47 dB   -14.89 dB      4:47 02-It Ain't Necessarily So
DR11      -0.29 dB   -14.47 dB      5:57 03-The Man I Love
DR10      -1.10 dB   -14.63 dB      3:59 04-Here Come De Honey Man
DR10      -0.17 dB   -12.97 dB      5:51 05-St. Louis Blues
DR14      -1.18 dB   -21.04 dB     11:03 06-Gershwin: Lullaby
DR13      -0.53 dB   -16.45 dB      3:31 07-Blueberry Rhyme
DR15      -6.05 dB   -23.99 dB      1:25 08-It Ain't Necessarily So (Interlude)
DR10      -0.38 dB   -13.12 dB      4:44 09-Cotton Tail
DR13      -1.54 dB   -17.41 dB      4:38 10-Summertime
DR11      -1.80 dB   -17.94 dB      1:56 11-My Man's Gone Now
DR11      -0.76 dB   -15.86 dB      4:46 12-Gershwin: Prelude in C# Minor
DR12      -1.00 dB   -18.02 dB      9:12 13-Ravel: Concerto For Piano And Orchestra in G, 2nd Mvt.
DR14      -1.31 dB   -21.04 dB      4:39 14-Embraceable You
--------------------------------------------------------------------------------

Number of tracks:  14
Official DR value: DR12

Samplerate:        88200 Hz
Channels:          2
Bits per sample:   24
Bitrate:           2290 kbps
Codec:             FLAC
================================================================================




Create a new paste based on this one


Comments: