[ create a new paste ] login | about

Link: http://codepad.org/mGNRKe8r    [ raw code | fork ]

Plain Text, pasted on May 8:
[CUETools log; Date: 5/8/2016 10:05:32 PM; Version: 2.1.5]
[CTDB TOCID: 2JOQ4TSRkS081V4J.uec5mtQc4Q-] found.
Track | CTDB Status
  1   | (324/332) Accurately ripped
  2   | (332/332) Accurately ripped
  3   | (332/332) Accurately ripped
  4   | (330/332) Accurately ripped
  5   | (330/332) Accurately ripped
  6   | (332/332) Accurately ripped
  7   | (332/332) Accurately ripped
  8   | (332/332) Accurately ripped
  9   | (330/332) Accurately ripped
 10   | (329/332) Accurately ripped
 11   | (324/332) Accurately ripped
[AccurateRip ID: 00217138-011ffd94-a2128e0b] found.
Track   [  CRC   |   V2   ] Status
 01     [95b60e0f|cc741fda] (042+047/485) Accurately ripped
 02     [75ee0401|171b3121] (042+046/486) Accurately ripped
 03     [355e527e|4bb3dbfa] (042+044/483) Accurately ripped
 04     [be93d2bd|606657d9] (042+045/484) Accurately ripped
 05     [80fe2ccb|e68c75e3] (042+044/481) Accurately ripped
 06     [45d5e6c4|c9fd0b2d] (042+047/491) Accurately ripped
 07     [825a6e51|11ef351b] (044+046/493) Accurately ripped
 08     [235b1149|8a3b19f5] (041+046/484) Accurately ripped
 09     [8788a037|41c222aa] (039+045/481) Accurately ripped
 10     [dadbb9fb|fc3b991d] (040+044/474) Accurately ripped
 11     [7162960d|92b24e00] (038+043/469) Accurately ripped
Offsetted by -640:
 01     [edeedc0f] (002/485) Accurately ripped
 02     [f4dcee81] (002/486) Accurately ripped
 03     [1614ea32] (002/483) Accurately ripped
 04     [142dc28a] (002/484) Accurately ripped
 05     [f391eaea] (002/481) Accurately ripped
 06     [f516e2c4] (002/491) Accurately ripped
 07     [52a90951] (002/493) Accurately ripped
 08     [fd94d649] (002/484) Accurately ripped
 09     [0ba29137] (002/481) Accurately ripped
 10     [36bd6fb4] (002/474) Accurately ripped
 11     [7df435d4] (002/469) Accurately ripped
Offsetted by -6:
 01     [4a89c997] (018/485) Accurately ripped
 02     [c4b84167] (018/486) Accurately ripped
 03     [cc4aedd1] (018/483) Accurately ripped
 04     [37c3f4d4] (018/484) Accurately ripped
 05     [4b4f169b] (018/481) Accurately ripped
 06     [71141c54] (019/491) Accurately ripped
 07     [b9e7f7c5] (018/493) Accurately ripped
 08     [cc9a0255] (017/484) Accurately ripped
 09     [15927813] (018/481) Accurately ripped
 10     [362d675e] (018/474) Accurately ripped
 11     [e02b68e4] (018/469) Accurately ripped
Offsetted by 6:
 01     [e0e25287] (163/485) Accurately ripped
 02     [2723c69b] (165/486) Accurately ripped
 03     [9e55b74f] (163/483) Accurately ripped
 04     [f94225b4] (162/484) Accurately ripped
 05     [b6f74329] (163/481) Accurately ripped
 06     [1a97b134] (166/491) Accurately ripped
 07     [4acce4dd] (165/493) Accurately ripped
 08     [7a1c203d] (164/484) Accurately ripped
 09     [f97ec85b] (163/481) Accurately ripped
 10     [80db80b2] (158/474) Accurately ripped
 11     [0290c31c] (158/469) Accurately ripped
Offsetted by -661:
 01     [66d3ec6b] (000/485) No match (V2 was not tested)
 02     [08a0c566] (000/486) No match (V2 was not tested)
 03     [171d3da2] (000/483) No match (V2 was not tested)
 04     [5292c11c] (000/484) No match (V2 was not tested)
 05     [84361d67] (000/481) No match (V2 was not tested)
 06     [8c709e3c] (000/491) No match (V2 was not tested)
 07     [95186a67] (000/493) No match (V2 was not tested)
 08     [cdf121f3] (000/484) No match (V2 was not tested)
 09     [fcc504b9] (000/481) No match (V2 was not tested)
 10     [8c01fa5d] (000/474) No match (V2 was not tested)
 11     [fe8a01f6] (000/469) No match (V2 was not tested)
Offsetted by 12:
 01     [2c0e96ff] (000/485) No match
 02     [d8598935] (000/486) No match (V2 was not tested)
 03     [07301c44] (000/483) No match
 04     [c3470b02] (002/484) Accurately ripped
 05     [ed5259c4] (000/481) No match
 06     [ef597ba4] (000/491) No match
 07     [133f5b69] (000/493) No match
 08     [d0dd2f31] (000/484) No match
 09     [6b74f07f] (002/481) Accurately ripped
 10     [26da4785] (000/474) No match (V2 was not tested)
 11     [93bff00f] (000/469) No match

Track Peak [ CRC32  ] [W/O NULL] [  LOG   ]
 --   99.8 [31CCC251] [256ACA10]   CRC32   
 01   99.8 [FE23E878] [E503633E]           
 02   99.8 [508DF6D9] [379973C1]           
 03   94.2 [5A313482] [941958D1]           
 04   99.8 [C0A9C23A] [3524FD2A]           
 05   99.8 [01633DA9] [5239E1B1]           
 06   99.8 [FB27B064] [BA3A0E57]           
 07   99.8 [05D3FF56] [61DA40A8]           
 08   99.8 [17701668] [F404C64D]           
 09   99.8 [8998D592] [13ABF2FA]           
 10   99.8 [E7D734CA] [768D8C73]           
 11   94.2 [2C5E23CA] [DE7EC7F2]           



Create a new paste based on this one


Comments: