[ create a new paste ] login | about

Link: http://codepad.org/mHyCNmBY    [ raw code | fork ]

Plain Text, pasted on Apr 20:
foobar2000 1.5 / Dynamic Range Meter 1.1.1
log date: 2020-04-19 08:42:13

--------------------------------------------------------------------------------
Analyzed: Gary Burton, Chick Corea, Pat Metheny, Roy Haynes and Dave Holland / Like Minds
--------------------------------------------------------------------------------

DR         Peak         RMS     Duration Track
--------------------------------------------------------------------------------
DR14      -6.69 dB   -28.39 dB      6:24 01-Question and Answer
DR14      -4.74 dB   -26.75 dB      5:21 02-Elucidation
DR14      -7.21 dB   -27.66 dB      6:17 03-Windows
DR15      -7.49 dB   -30.39 dB     10:41 04-Futures
DR14      -6.27 dB   -26.65 dB      5:51 05-Like Minds
DR15      -7.95 dB   -28.96 dB      6:27 06-Country Roads
DR14      -8.33 dB   -29.76 dB      6:34 07-Tears of Rain
DR16      -5.22 dB   -27.83 dB      6:24 08-Soon
DR14      -9.08 dB   -29.43 dB      5:24 09-For A Thousand Years
DR16      -5.69 dB   -28.53 dB      9:05 10-Straight Up and Down
--------------------------------------------------------------------------------

Number of tracks:  10
Official DR value: DR15

Samplerate:        2822400 Hz / PCM Samplerate: 176400 Hz
Channels:          6
Bits per sample:   1
Bitrate:           16934 kbps
Codec:             DST64
================================================================================

--------------------------------------------------------------------------------
Analyzed: Gary Burton, Chick Corea, Pat Metheny, Roy Haynes and Dave Holland / Like Minds
--------------------------------------------------------------------------------

DR         Peak         RMS     Duration Track
--------------------------------------------------------------------------------
DR13      -6.76 dB   -21.95 dB      6:24 01-Question and Answer
DR14      -5.84 dB   -21.90 dB      5:21 02-Elucidation
DR12      -6.61 dB   -22.55 dB      6:17 03-Windows
DR17      -5.73 dB   -25.35 dB     10:41 04-Futures
DR14      -6.79 dB   -23.09 dB      5:51 05-Like Minds
DR13      -6.35 dB   -22.79 dB      6:27 06-Country Roads
DR13      -7.29 dB   -24.21 dB      6:34 07-Tears of Rain
DR16      -5.89 dB   -23.95 dB      6:24 08-Soon
DR15      -6.54 dB   -24.86 dB      5:24 09-For A Thousand Years
DR15      -5.84 dB   -23.55 dB      9:05 10-Straight Up and Down
--------------------------------------------------------------------------------

Number of tracks:  10
Official DR value: DR14

Samplerate:        2822400 Hz / PCM Samplerate: 176400 Hz
Channels:          2
Bits per sample:   1
Bitrate:           5645 kbps
Codec:             DST64
================================================================================




Create a new paste based on this one


Comments: