[ create a new paste ] login | about

Link: http://codepad.org/mI9wxNI0    [ raw code | fork ]

Plain Text, pasted on May 10:
Exact Audio Copy V1.1 from 23. June 2015

EAC extraction logfile from 27. April 2017, 10:58

Def Leppard / And There Will Be A Next Time… Live in Detroit CD1

Used drive  : PIONEER BD-RW   BDR-209D   Adapter: 0  ID: 5

Read mode               : Secure
Utilize accurate stream : Yes
Defeat audio cache      : Yes
Make use of C2 pointers : No

Read offset correction                      : 667
Overread into Lead-In and Lead-Out          : No
Fill up missing offset samples with silence : Yes
Delete leading and trailing silent blocks   : No
Null samples used in CRC calculations       : Yes
Used interface                              : Installed external ASPI interface

Used output format              : User Defined Encoder
Selected bitrate                : 768 kBit/s
Quality                         : High
Add ID3 tag                     : No
Command line compressor         : C:\Program Files (x86)\Exact Audio Copy\FLAC\FLAC.EXE
Additional command line options : -6 -V -T "ARTIST=%artist%" -T "TITLE=%title%" -T "ALBUM=%albumtitle%" -T "DATE=%year%" -T "TRACKNUMBER=%tracknr%" -T "GENRE=%genre%" -T "COMMENT=%comment%" -T "BAND=%albuminterpret%" -T "ALBUMARTIST=%albuminterpret%" -T "COMPOSER=%composer%" %haslyrics%--tag-from-file=LYRICS="%lyricsfile%"%haslyrics% -T "DISCNUMBER=%cdnumber%" -T "TOTALDISCS=%totalcds%" -T "TOTALTRACKS=%numtracks%" %hascover%--picture="%coverfile%"%hascover% %source% -o %dest%


TOC of the extracted CD

     Track |   Start  |  Length  | Start sector | End sector 
    ---------------------------------------------------------
        1  |  0:00.00 |  5:01.33 |         0    |    22607   
        2  |  5:01.33 |  4:10.34 |     22608    |    41391   
        3  |  9:11.67 |  5:44.48 |     41392    |    67239   
        4  | 14:56.40 |  4:09.37 |     67240    |    85951   
        5  | 19:06.02 |  4:45.58 |     85952    |   107384   
        6  | 23:51.60 |  5:47.72 |    107385    |   133481   
        7  | 29:39.57 |  5:31.55 |    133482    |   158361   
        8  | 35:11.37 |  3:43.71 |    158362    |   175157   
        9  | 38:55.33 |  4:06.62 |    175158    |   193669   


Range status and errors

Selected range

     Filename E:\MUSIC\Def Leppard - And There Will Be A Next Time… Live in Detroit CD1.wav

     Peak level 100.0 %
     Extraction speed 7.0 X
     Range quality 100.0 %
     Test CRC 3584A754
     Copy CRC 3584A754
     Copy OK

No errors occurred

 
AccurateRip summary
 
Track  1  accurately ripped (confidence 6)  [BDD5BD41]  (AR v2)
Track  2  accurately ripped (confidence 6)  [72A940A7]  (AR v2)
Track  3  accurately ripped (confidence 6)  [5B11E3E0]  (AR v2)
Track  4  accurately ripped (confidence 6)  [645F3277]  (AR v2)
Track  5  accurately ripped (confidence 6)  [1EFF1FC0]  (AR v2)
Track  6  accurately ripped (confidence 6)  [73404E09]  (AR v2)
Track  7  accurately ripped (confidence 6)  [B390D241]  (AR v2)
Track  8  accurately ripped (confidence 6)  [A6FA6591]  (AR v2)
Track  9  accurately ripped (confidence 6)  [2AA4B3DD]  (AR v2)
 
All tracks accurately ripped

End of status report

==== Log checksum F9A260A1BD6F39B08010EED71EAC7313AF55206334F2701F519F414162FFAAE0 ====



Create a new paste based on this one


Comments: