[ create a new paste ] login | about

Link: http://codepad.org/mOYdsolE    [ raw code | fork ]

Plain Text, pasted on Dec 23:
16/44
:::::

foobar2000 1.6 / Dynamic Range Meter 1.1.1
log date: 2020-12-23 20:22:05

--------------------------------------------------------------------------------
Analyzed: Herb Alpert & The Tijuana Brass / Christmas Album
--------------------------------------------------------------------------------

DR         Peak         RMS     Duration Track
--------------------------------------------------------------------------------
DR12      -0.16 dB   -14.75 dB      3:03 01-Winter Wonderland
DR11       0.00 dB   -14.47 dB      3:09 02-Jingle Bells
DR11       0.00 dB   -14.28 dB      3:03 03-My Favorite Things
DR12      -1.55 dB   -16.50 dB      3:39 04-The Christmas Song
DR10      -0.30 dB   -13.79 dB      2:59 05-Las MaƱanitas
DR11       0.00 dB   -13.23 dB      4:00 06-Sleigh Ride
DR11       0.00 dB   -14.04 dB      2:56 07-The Bell That Couldn't Jingle
DR10      -0.97 dB   -13.90 dB      3:45 08-Let It Snow, Let It Snow, Let It Snow
DR10      -0.35 dB   -13.22 dB      1:52 09-Jingle Bell Rock
DR10      -1.75 dB   -15.65 dB      3:27 10-Jesu, Joy Of Man's Desiring
--------------------------------------------------------------------------------

Number of tracks:  10
Official DR value: DR11

Samplerate:        44100 Hz
Channels:          2
Bits per sample:   16
Bitrate:           715 kbps
Codec:             FLAC
================================================================================



24/88
:::::

foobar2000 1.6 / Dynamic Range Meter 1.1.1
log date: 2020-12-23 20:22:15

--------------------------------------------------------------------------------
Analyzed: Herb Alpert & The Tijuana Brass / Christmas Album
--------------------------------------------------------------------------------

DR         Peak         RMS     Duration Track
--------------------------------------------------------------------------------
DR12      -0.15 dB   -14.82 dB      3:03 01-Winter Wonderland
DR11       0.00 dB   -14.47 dB      3:09 02-Jingle Bells
DR11       0.00 dB   -14.28 dB      3:03 03-My Favorite Things
DR12      -1.51 dB   -16.56 dB      3:39 04-The Christmas Song
DR10      -0.28 dB   -13.79 dB      2:59 05-Las MaƱanitas
DR11      -0.04 dB   -13.28 dB      4:00 06-Sleigh Ride
DR11       0.00 dB   -14.04 dB      2:56 07-The Bell That Couldn't Jingle
DR10      -0.97 dB   -13.90 dB      3:45 08-Let It Snow, Let It Snow, Let It Snow
DR10      -0.36 dB   -13.21 dB      1:52 09-Jingle Bell Rock
DR10      -1.75 dB   -15.65 dB      3:27 10-Jesu, Joy Of Man's Desiring
--------------------------------------------------------------------------------

Number of tracks:  10
Official DR value: DR11

Samplerate:        88200 Hz
Channels:          2
Bits per sample:   24
Bitrate:           2637 kbps
Codec:             FLAC
================================================================================




Create a new paste based on this one


Comments: