[ create a new paste ] login | about

Link: http://codepad.org/mOlRU9A3    [ raw code | fork ]

Plain Text, pasted on Dec 9:
foobar2000 1.6 / Dynamic Range Meter 1.1.1
log date: 2020-12-09 04:43:55

--------------------------------------------------------------------------------
Analyzed: Henry Mancini / Mancini Country
--------------------------------------------------------------------------------

DR         Peak         RMS     Duration Track
--------------------------------------------------------------------------------
DR11      -3.91 dB   -18.78 dB      3:05 01-Let It Be Me
DR11      -4.00 dB   -17.54 dB      2:55 02-Last Date
DR12      -2.66 dB   -18.35 dB      2:49 03-Almost Persuaded
DR11      -3.93 dB   -18.54 dB      3:10 04-Take Me To Your World
DR11      -4.65 dB   -19.40 dB      3:00 05-Release Me
DR12      -4.88 dB   -19.72 dB      3:21 06-You Don't Know Me
DR12      -3.63 dB   -19.28 dB      3:00 07-Phone Call To The Past
DR11      -4.89 dB   -19.55 dB      2:31 08-I Can't Stop Loving You
DR10      -4.35 dB   -18.14 dB      3:04 09-Make The World Go Away
DR11      -4.78 dB   -19.10 dB      3:16 10-Stand By Your Man
DR11      -5.33 dB   -19.87 dB      3:14 11-The End Of The World
DR12      -1.77 dB   -17.63 dB      2:42 12-Delta Dawn
DR12      -2.90 dB   -18.43 dB      3:16 13-If You've Got The Time (I've Got The Place)
DR12      -2.99 dB   -18.57 dB      3:05 14-A Picture Of Me (Without You)
DR12      -3.66 dB   -18.32 dB      2:41 15-Your Cheatin' Heart
DR11      -3.89 dB   -19.28 dB      2:54 16-For The Good Times
DR12      -2.19 dB   -17.25 dB      3:00 17-Take Me Home, Country Roads
DR12      -4.81 dB   -20.73 dB      2:33 18-Come Live With Me
DR13      -3.57 dB   -20.09 dB      2:31 19-With One Exception
DR13      -1.70 dB   -19.30 dB      2:40 20-The Ways To Love A Man
DR12      -3.43 dB   -18.48 dB      5:00 21-Medley
--------------------------------------------------------------------------------

Number of tracks:  21
Official DR value: DR12

Samplerate:        88200 Hz
Channels:          2
Bits per sample:   24
Bitrate:           2533 kbps
Codec:             FLAC
================================================================================




Create a new paste based on this one


Comments: