[ create a new paste ] login | about

Link: http://codepad.org/mOr4C1Rx    [ raw code | fork ]

Plain Text, pasted on Oct 12:
foobar2000 1.3.17 / Dynamic Range Meter 1.1.1
log date: 2018-10-12 11:53:34

--------------------------------------------------------------------------------
Analyzed: Elvis Costello & The Imposters / Look Now (Deluxe Edition)
--------------------------------------------------------------------------------

DR         Peak         RMS     Duration Track
--------------------------------------------------------------------------------
DR6       -0.10 dB    -6.84 dB      5:34 01-Under Lime
DR7       -0.10 dB    -9.87 dB      2:29 02-Don't Look Now
DR5        0.00 dB    -6.60 dB      4:17 03-Burnt Sugar Is So Bitter
DR6       -0.10 dB    -7.49 dB      3:53 04-Stripping Paper
DR6       -0.10 dB    -7.04 dB      3:33 05-Unwanted Number
DR5       -0.10 dB    -6.75 dB      4:26 06-I Let The Sun Go Down
DR5       -0.10 dB    -7.01 dB      3:46 07-Mr. & Mrs. Hush
DR7       -0.10 dB   -10.18 dB      3:39 08-Photographs Can Lie
DR6       -0.10 dB    -7.63 dB      3:18 09-Dishonor The Stars
DR5       -0.10 dB    -7.02 dB      4:50 10-Suspect My Tears
DR5       -0.10 dB    -7.20 dB      3:22 11-Why Won't Heaven Help Me?
DR5       -0.10 dB    -6.58 dB      4:09 12-He's Given Me Things
DR8       -0.10 dB   -10.20 dB      4:02 13-Isabelle In Tears
DR5       -0.10 dB    -6.91 dB      3:33 14-Adieu Paris (L'Envie Des Etoiles)
DR5        0.00 dB    -7.35 dB      3:00 15-The Final Mrs. Curtain
DR8       -0.06 dB   -11.80 dB      4:31 16-You Shouldn’t Look At Me That Way (From The Motion Picture “Film Stars Don’t Die In Liverpool”)
--------------------------------------------------------------------------------

Number of tracks:  16
Official DR value: DR6

Samplerate:        96000 Hz
Channels:          2
Bits per sample:   24
Bitrate:           2714 kbps
Codec:             FLAC
================================================================================




Create a new paste based on this one


Comments: