[ create a new paste ] login | about

Link: http://codepad.org/mSTuHYcy    [ raw code | fork ]

Plain Text, pasted on Jun 16:
Exact Audio Copy V1.0 beta 3 from 29. August 2011

Отчёт EAC об извлечении, выполненном 9. июня 2017, 19:49

Gov't Mule / Revolution Come...Revolution Go (Deluxe Edition) (CD 1) Main Album

Дисковод: ATAPI   iHAS424   A   Adapter: 0  ID: 0

Режим чтения                 : Достоверность
Использование точного потока : Да
Отключение кэша аудио        : Да
Использование указателей C2  : Нет

Коррекция смещения при чтении                     : 6
Способность читать области Lead-in и Lead-out     : Нет
Заполнение пропущенных сэмплов тишиной            : Да
Удаление блоков с тишиной в начале и конце        : Нет
При вычислениях CRC использовались нулевые сэмплы : Да
Интерфейс                                         : Установленный внешний ASPI-интерфейс

Выходной формат          : Пользовательский кодировщик
Выбранный битрейт        : 1024 kBit/s
Качество                 : Высокий
Добавление ID3-тега      : Нет
Утилита сжатия           : C:\Program Files\Exact Audio Copy\FLAC\FLAC.EXE
Дополнительные параметры : -8 -V -T "ARTIST=%artist%" -T "ALBUM=%albumtitle%" -T "DATE=%year%" -T "GENRE=%genre%" -T "COMMENT=ripped by izia1956" %source%


TOC извлечённого CD

     Трек |   Старт  | Длительность | Начальный сектор | Конечный сектор 
    ---------------------------------------------------------------------
       1  |  0:00.00 |    6:00.52   |           0      |      27051      
       2  |  6:00.52 |    5:17.73   |       27052      |      50899      
       3  | 11:18.50 |    5:23.50   |       50900      |      75174      
       4  | 16:42.25 |    6:21.61   |       75175      |     103810      
       5  | 23:04.11 |    5:17.08   |      103811      |     127593      
       6  | 28:21.19 |    8:48.13   |      127594      |     167206      
       7  | 37:09.32 |    6:37.53   |      167207      |     197034      
       8  | 43:47.10 |    4:11.53   |      197035      |     215912      
       9  | 47:58.63 |    8:03.14   |      215913      |     252151      
      10  | 56:02.02 |    6:51.49   |      252152      |     283025      
      11  | 62:53.51 |    6:58.36   |      283026      |     314411      
      12  | 69:52.12 |    7:25.73   |      314412      |     347859      


Характеристики диапазона извлечения и сообщения об ошибках

Выбранный диапазон

     Имя файла D:\BitComet\Gov't Mule - Revolution Come...Revolution Go (Deluxe Edition)(2017)\Main Album\Gov't Mule - Revolution Come...Revolution Go (Deluxe Edition) (CD 1) Main Album.wav

     Пиковый уровень 99.7 %
     Скорость извлечения 6.9 X
     Качество диапазона 100.0 %
     CRC теста 1707FA3D
     CRC копии 1707FA3D
     Копирование... OK

Ошибок не произошло

 
AccurateRip: сводка
 
Трек  1  отсутствует в базе данных
Трек  2  отсутствует в базе данных
Трек  3  отсутствует в базе данных
Трек  4  отсутствует в базе данных
Трек  5  отсутствует в базе данных
Трек  6  отсутствует в базе данных
Трек  7  отсутствует в базе данных
Трек  8  отсутствует в базе данных
Трек  9  отсутствует в базе данных
Трек 10  отсутствует в базе данных
Трек 11  отсутствует в базе данных
Трек 12  отсутствует в базе данных
 
Ни одного трека нет в базе AccurateRip

Конец отчёта

==== Контрольная сумма отчёта 367DC7328D93667C308707647F4B1078056EB6CDCA84303B3ED7A97668C78950 ====



Create a new paste based on this one


Comments: