[ create a new paste ] login | about

Link: http://codepad.org/mSXRbZrr    [ raw code | fork ]

Plain Text, pasted on Jun 17:
[CUETools log; Date: 6/16/2016 9:36:04 PM; Version: 2.1.5]
[CTDB TOCID: ADvA309rst0HQlDOJCt9K1cEEtI-] found.
Track | CTDB Status
  1   | (50/50) Accurately ripped
  2   | (50/50) Accurately ripped
  3   | (50/50) Accurately ripped
  4   | (50/50) Accurately ripped
  5   | (50/50) Accurately ripped
  6   | (50/50) Accurately ripped
  7   | (50/50) Accurately ripped
  8   | (50/50) Accurately ripped
  9   | (50/50) Accurately ripped
 10   | (50/50) Accurately ripped
 11   | (50/50) Accurately ripped
 12   | (47/50) Accurately ripped
[AccurateRip ID: 001be450-0102ae54-a30e070c] found.
Track   [  CRC   |   V2   ] Status
 01     [b15ccc3c|6b8daef6] (06+66/72) Accurately ripped
 02     [4c6ee846|4e0fe6ca] (05+65/70) Accurately ripped
 03     [21e719b6|87359cac] (06+65/71) Accurately ripped
 04     [11ef330d|4649ffdf] (06+64/70) Accurately ripped
 05     [51102de6|2ba74b27] (05+65/70) Accurately ripped
 06     [1819e69d|eea1fda2] (06+65/71) Accurately ripped
 07     [c4a37db1|612a44ee] (06+64/70) Accurately ripped
 08     [5bf0ac47|18644596] (05+62/70) Accurately ripped
 09     [9a7e4ec7|7795b766] (05+65/70) Accurately ripped
 10     [364e1f04|6d0d7a4b] (05+65/70) Accurately ripped
 11     [a816c045|34275e86] (05+65/70) Accurately ripped
 12     [d27c917e|feade7ed] (05+61/66) Accurately ripped

Track Peak [ CRC32  ] [W/O NULL] [  LOG   ]
 --   98.9 [5C7DEA88] [D0BC99DB]   CRC32   
 01   98.5 [C4B0FA98] [92BC4EF0]           
 02   97.7 [08EB46B4] [09A4B5F3]           
 03   83.5 [960BF676] [3D8636CE]           
 04   97.9 [203319CD] [7D7D579B]           
 05   97.9 [3EC9627C] [996CBE41]           
 06   98.3 [BB3C7D8B] [D4114FAC]           
 07   91.9 [FFE0E5A1] [BAEA46EB]           
 08   98.9 [4D78532E] [76C62732]           
 09   97.1 [A5A74C55] [30D8488A]           
 10   98.2 [777CB7C7] [F98174F3]           
 11   83.2 [C983834D] [BE80B386]           
 12   98.2 [003D9BAA] [B4C7FF36]           



Create a new paste based on this one


Comments: