[ create a new paste ] login | about

Link: http://codepad.org/mYEWK4Os    [ raw code | fork ]

Plain Text, pasted on Dec 12:
foobar2000 1.5 / Dynamic Range Meter 1.1.1
log date: 2019-12-12 23:54:26

--------------------------------------------------------------------------------
Analyzed: Duke Ellington and Coleman Hawkins / Duke Ellington Meets Coleman Hawkins
--------------------------------------------------------------------------------

DR         Peak         RMS     Duration Track
--------------------------------------------------------------------------------
DR12      -0.52 dB   -15.92 dB      5:15 01-Limbo Jazz
DR13      -1.43 dB   -17.66 dB      5:56 02-Mood Indigo
DR11      -1.70 dB   -15.86 dB      4:05 03-Ray Charles' Place
DR12      -1.49 dB   -16.57 dB      4:59 04-Wanderlust
DR12      -1.24 dB   -16.53 dB      4:19 05-You Dirty Dog
DR11      -3.66 dB   -19.26 dB      3:52 06-Self Portrait (Of The Bean)
DR12      -1.52 dB   -17.12 dB      4:49 07-The Jeep Is Jumpin'
DR14      -2.54 dB   -20.90 dB      5:54 08-The Ricitic
--------------------------------------------------------------------------------

Number of tracks:  8
Official DR value: DR12

Samplerate:        88200 Hz
Channels:          2
Bits per sample:   24
Bitrate:           2493 kbps
Codec:             FLAC
================================================================================




Create a new paste based on this one


Comments: