[ create a new paste ] login | about

Link: http://codepad.org/mYX3ZORQ    [ raw code | fork ]

Plain Text, pasted on Aug 14:
foobar2000 1.3.17 / Dynamic Range Meter 1.1.1
log date: 2018-08-14 09:25:18

--------------------------------------------------------------------------------
Analyzed: Charles Aznavour / IL FAUT SAVOIR
--------------------------------------------------------------------------------

DR         Peak         RMS     Duration Track
--------------------------------------------------------------------------------
DR9       -0.71 dB   -16.83 dB      3:13 01-Il faut savoir
DR12      -1.53 dB   -18.80 dB      3:07 02-Ne crois surtout pas
DR10      -0.83 dB   -17.51 dB      2:16 03-Avec ces yeux la
DR10      -0.59 dB   -17.41 dB      2:35 04-Le carillonneur
DR11      -0.33 dB   -18.77 dB      2:14 05-J'ai tort
DR10      -0.71 dB   -17.30 dB      2:55 06-Lucie
DR11      -0.65 dB   -17.91 dB      2:11 07-Voila que ca recommence
DR10      -0.70 dB   -15.81 dB      2:51 08-La marche des anges
DR11      -0.41 dB   -17.59 dB      3:13 09-Alleluia
DR11      -0.37 dB   -19.08 dB      3:46 10-L'amour c'est comme un jour
DR10      -0.37 dB   -17.87 dB      2:48 11-Notre amour nous ressemble
DR11      -0.01 dB   -17.76 dB      2:34 12-Au rythme de ton coeur
DR11      -0.34 dB   -18.15 dB      2:38 13-Esperanza
DR11      -0.35 dB   -16.71 dB      2:25 14-Les comediens
DR11      -1.44 dB   -19.54 dB      2:25 15-Trousse chemise
DR11      -0.28 dB   -17.63 dB      3:12 16-Tu n'as plus
DR10      -0.36 dB   -15.12 dB      3:23 17-Dolores
DR11      -1.28 dB   -17.80 dB      2:47 18-Les petits matins
--------------------------------------------------------------------------------

Number of tracks:  18
Official DR value: DR11

Samplerate:        88200 Hz
Channels:          6
Bits per sample:   24
Bitrate:           7530 kbps
Codec:             FLAC
================================================================================




Create a new paste based on this one


Comments: