[ create a new paste ] login | about

Link: http://codepad.org/mco5oRPR    [ raw code | fork ]

Plain Text, pasted on Aug 20:
General
Complete name                  : VTS_01_1.VOB
Format                         : MPEG-PS
File size                      : 1 024 MiB
Duration                       : 21mn 58s
Overall bit rate mode          : Variable
Overall bit rate               : 6 514 Kbps

Video
ID                             : 224 (0xE0)
Format                         : MPEG Video
Format version                 : Version 2
Format profile                 : Main@Main
Format settings, BVOP          : Yes
Format settings, Matrix        : Custom
Duration                       : 21mn 58s
Bit rate mode                  : Variable
Bit rate                       : 4 734 Kbps
Maximum bit rate               : 9 800 Kbps
Width                          : 720 pixels
Height                         : 576 pixels
Display aspect ratio           : 16:9
Frame rate                     : 25.000 fps
Standard                       : PAL
Color space                    : YUV
Chroma subsampling             : 4:2:0
Bit depth                      : 8 bits
Scan type                      : Interlaced
Scan order                     : Top Field First
Compression mode               : Lossy
Bits/(Pixel*Frame)             : 0.457
Stream size                    : 744 MiB (73%)

Audio #1
ID                             : 189 (0xBD)-128 (0x80)
Format                         : AC-3
Format/Info                    : Audio Coding 3
Mode extension                 : CM (complete main)
Format settings, Endianness    : Big
Muxing mode                    : DVD-Video
Duration                       : 21mn 58s
Bit rate mode                  : Constant
Bit rate                       : 448 Kbps
Channel(s)                     : 2 channels
Channel positions              : Front: L R
Sampling rate                  : 48.0 KHz
Bit depth                      : 16 bits
Compression mode               : Lossy
Stream size                    : 70.4 MiB (7%)

Audio #2
ID                             : 189 (0xBD)-129 (0x81)
Format                         : AC-3
Format/Info                    : Audio Coding 3
Mode extension                 : CM (complete main)
Format settings, Endianness    : Big
Muxing mode                    : DVD-Video
Duration                       : 21mn 58s
Bit rate mode                  : Constant
Bit rate                       : 448 Kbps
Channel(s)                     : 6 channels
Channel positions              : Front: L C R, Side: L R, LFE
Sampling rate                  : 48.0 KHz
Bit depth                      : 16 bits
Compression mode               : Lossy
Stream size                    : 70.4 MiB (7%)

Audio #3
ID                             : 189 (0xBD)-138 (0x8A)
Format                         : DTS
Format/Info                    : Digital Theater Systems
Muxing mode                    : DVD-Video
Duration                       : 21mn 58s
Bit rate mode                  : Constant
Bit rate                       : 755 Kbps
Channel(s)                     : 6 channels
Channel positions              : Front: L C R, Side: L R, LFE
Sampling rate                  : 48.0 KHz
Bit depth                      : 24 bits
Compression mode               : Lossy
Stream size                    : 119 MiB (12%)

Text #1
ID                             : 189 (0xBD)-33 (0x21)
Format                         : RLE
Format/Info                    : Run-length encoding
Muxing mode                    : DVD-Video
Delay relative to video        : 3s 280ms

Text #2
ID                             : 189 (0xBD)-34 (0x22)
Format                         : RLE
Format/Info                    : Run-length encoding
Muxing mode                    : DVD-Video
Delay relative to video        : 3s 280ms

Text #3
ID                             : 189 (0xBD)-35 (0x23)
Format                         : RLE
Format/Info                    : Run-length encoding
Muxing mode                    : DVD-Video
Delay relative to video        : 3s 280ms

Text #4
ID                             : 189 (0xBD)-36 (0x24)
Format                         : RLE
Format/Info                    : Run-length encoding
Muxing mode                    : DVD-Video
Delay relative to video        : 3s 280ms

Text #5
ID                             : 189 (0xBD)-37 (0x25)
Format                         : RLE
Format/Info                    : Run-length encoding
Muxing mode                    : DVD-Video
Delay relative to video        : 3s 280ms

Text #6
ID                             : 189 (0xBD)-38 (0x26)
Format                         : RLE
Format/Info                    : Run-length encoding
Muxing mode                    : DVD-Video
Delay relative to video        : 3s 280ms

Menu




Create a new paste based on this one


Comments: