[ create a new paste ] login | about

Link: http://codepad.org/mkhJHLrX    [ raw code | fork ]

Plain Text, pasted on Sep 5:
Disc 1

Exact Audio Copy V1.0 beta 3 from 29. August 2011

EAC extraction logfile from 23. September 2013, 15:41

Rundfunk-Sinfonieorchester Berlin, dir. Marek Janowski - Th. Konieczny, A. Yang, Ch. Elsner, I. Vermillion / Wagner: Das Rheingold CD#1v2

Used drive  : PIONEER BD-RW   BDR-206   Adapter: 0  ID: 2

Read mode               : Secure
Utilize accurate stream : Yes
Defeat audio cache      : Yes
Make use of C2 pointers : No

Read offset correction                      : 667
Overread into Lead-In and Lead-Out          : No
Fill up missing offset samples with silence : Yes
Delete leading and trailing silent blocks   : No
Null samples used in CRC calculations       : Yes
Used interface                              : Native Win32 interface for Win NT & 2000

Used output format              : User Defined Encoder
Selected bitrate                : 1024 kBit/s
Quality                         : High
Add ID3 tag                     : Yes
Command line compressor         : C:\Program Files\FLAC\flac.exe
Additional command line options : -5 -T "Artist=%artist%" -T "Title=%title%" -T "Album=%albumtitle%" -T "Date=%year%" -T "Tracknumber=%tracknr%" -T "Genre=%genre%" %source% -o %dest%


TOC of the extracted CD

     Track |   Start  |  Length  | Start sector | End sector 
    ---------------------------------------------------------
        1  |  0:00.00 |  4:12.45 |         0    |    18944   
        2  |  4:12.45 |  2:25.35 |     18945    |    29854   
        3  |  6:38.05 |  4:57.63 |     29855    |    52192   
        4  | 11:35.68 |  2:22.39 |     52193    |    62881   
        5  | 13:58.32 |  5:44.62 |     62882    |    88743   
        6  | 19:43.19 |  1:47.25 |     88744    |    96793   
        7  | 21:30.44 |  3:45.16 |     96794    |   113684   
        8  | 25:15.60 |  1:50.74 |    113685    |   122008   
        9  | 27:06.59 |  6:18.63 |    122009    |   150421   
       10  | 33:25.47 |  7:02.27 |    150422    |   182098   
       11  | 40:27.74 |  1:37.45 |    182099    |   189418   
       12  | 42:05.44 |  3:27.15 |    189419    |   204958   
       13  | 45:32.59 |  5:29.39 |    204959    |   229672   
       14  | 51:02.23 |  4:15.28 |    229673    |   248825   
       15  | 55:17.51 |  4:37.59 |    248826    |   269659   
       16  | 59:55.35 |  3:50.61 |    269660    |   286970   
       17  | 63:46.21 |  2:37.28 |    286971    |   298773   
       18  | 66:23.49 |  4:07.49 |    298774    |   317347   


Range status and errors

Selected range

     Filename F:\=== VINYL RIPS ===\=== EAC===\X FRESH RIP\Wagner- RSO Berlin, Marek Janowski - Das Rheingold CD#1v2.wav

     Peak level 93.3 %
     Extraction speed 2.0 X
     Range quality 100.0 %
     Test CRC 3FAD9D66
     Copy CRC 3FAD9D66
     Copy OK

No errors occurred

 
AccurateRip summary
 
Track  1  accurately ripped (confidence 1)  [3877DF23]  (AR v2)
Track  2  accurately ripped (confidence 1)  [92287B4E]  (AR v2)
Track  3  accurately ripped (confidence 1)  [B962CCE8]  (AR v2)
Track  4  accurately ripped (confidence 1)  [992331FF]  (AR v2)
Track  5  accurately ripped (confidence 1)  [994A3C47]  (AR v2)
Track  6  accurately ripped (confidence 1)  [AA8D7753]  (AR v2)
Track  7  accurately ripped (confidence 1)  [1B4E4168]  (AR v2)
Track  8  accurately ripped (confidence 1)  [ECC4275E]  (AR v2)
Track  9  accurately ripped (confidence 1)  [3B541FF5]  (AR v2)
Track 10  accurately ripped (confidence 1)  [1759C24A]  (AR v2)
Track 11  accurately ripped (confidence 1)  [BD60C309]  (AR v2)
Track 12  accurately ripped (confidence 1)  [FCA52E88]  (AR v2)
Track 13  accurately ripped (confidence 1)  [3E5877E7]  (AR v2)
Track 14  accurately ripped (confidence 1)  [4EBBFAB7]  (AR v2)
Track 15  accurately ripped (confidence 1)  [A9668C20]  (AR v2)
Track 16  accurately ripped (confidence 1)  [843467A8]  (AR v2)
Track 17  accurately ripped (confidence 1)  [4CFD53BB]  (AR v2)
Track 18  accurately ripped (confidence 1)  [F287949F]  (AR v2)
 
All tracks accurately ripped

End of status report

---- CUETools DB Plugin V2.1.3

[CTDB TOCID: mfcCoeS2sDywS64NNYPGwa9xUaw-] disk not present in database, Submit result: database access error: Die Anfrage wurde abgebrochen: Die Anfrage wurde abgebrochen..


==== Log checksum 88AC68004F842BEE666675096F0F7DB5E6ADAF24BFAAEB3E5D631DEBCF894695 ====

=======================================================================================================================================================================================

Disc 2

Exact Audio Copy V1.0 beta 3 from 29. August 2011

EAC extraction logfile from 23. September 2013, 15:41

Rundfunk-Sinfonieorchester Berlin, dir. Marek Janowski - Th. Konieczny, A. Yang, Ch. Elsner, I. Vermillion / Wagner: Das Rheingold CD#2v2

Used drive  : PLEXTOR CD-R   PX-W1210A   Adapter: 1  ID: 0

Read mode               : Secure
Utilize accurate stream : Yes
Defeat audio cache      : Yes
Make use of C2 pointers : No

Read offset correction                      : 99
Overread into Lead-In and Lead-Out          : No
Fill up missing offset samples with silence : Yes
Delete leading and trailing silent blocks   : No
Null samples used in CRC calculations       : Yes
Used interface                              : Native Win32 interface for Win NT & 2000

Used output format              : User Defined Encoder
Selected bitrate                : 1024 kBit/s
Quality                         : High
Add ID3 tag                     : Yes
Command line compressor         : C:\Program Files\FLAC\flac.exe
Additional command line options : -5 -T "Artist=%artist%" -T "Title=%title%" -T "Album=%albumtitle%" -T "Date=%year%" -T "Tracknumber=%tracknr%" -T "Genre=%genre%" %source% -o %dest%


TOC of the extracted CD

     Track |   Start  |  Length  | Start sector | End sector 
    ---------------------------------------------------------
        1  |  0:00.00 |  3:32.14 |         0    |    15913   
        2  |  3:32.14 |  2:27.55 |     15914    |    26993   
        3  |  5:59.69 |  4:35.30 |     26994    |    47648   
        4  | 10:35.24 |  4:41.06 |     47649    |    68729   
        5  | 15:16.30 |  3:34.01 |     68730    |    84780   
        6  | 18:50.31 |  3:18.71 |     84781    |    99701   
        7  | 22:09.27 |  3:10.05 |     99702    |   113956   
        8  | 25:19.32 |  3:15.50 |    113957    |   128631   
        9  | 28:35.07 |  4:36.62 |    128632    |   149393   
       10  | 33:11.69 |  4:02.68 |    149394    |   167611   
       11  | 37:14.62 |  3:07.07 |    167612    |   181643   
       12  | 40:21.69 |  3:18.19 |    181644    |   196512   
       13  | 43:40.13 |  2:01.09 |    196513    |   205596   
       14  | 45:41.22 |  2:40.40 |    205597    |   217636   
       15  | 48:21.62 |  5:29.44 |    217637    |   242355   
       16  | 53:51.31 |  3:21.43 |    242356    |   257473   
       17  | 57:12.74 |  2:27.02 |    257474    |   268500   
       18  | 59:40.01 |  2:44.45 |    268501    |   280845   
       19  | 62:24.46 |  4:23.24 |    280846    |   300594   
       20  | 66:47.70 |  3:04.42 |    300595    |   314436   


Range status and errors

Selected range

     Filename F:\=== VINYL RIPS ===\=== EAC===\X FRESH RIP\Wagner- RSO Berlin, Marek Janowski - Das Rheingold CD#2v2.wav

     Peak level 94.9 %
     Extraction speed 3.7 X
     Range quality 99.9 %
     Test CRC CF93795E
     Copy CRC CF93795E
     Copy OK

No errors occurred

 
AccurateRip summary
 
Track  1  not present in database
Track  2  not present in database
Track  3  not present in database
Track  4  not present in database
Track  5  not present in database
Track  6  not present in database
Track  7  not present in database
Track  8  not present in database
Track  9  not present in database
Track 10  not present in database
Track 11  not present in database
Track 12  not present in database
Track 13  not present in database
Track 14  not present in database
Track 15  not present in database
Track 16  not present in database
Track 17  not present in database
Track 18  not present in database
Track 19  not present in database
Track 20  not present in database
 
None of the tracks are present in the AccurateRip database

End of status report

---- CUETools DB Plugin V2.1.3

[CTDB TOCID: .heMzjXpD2zLN5JmeSki0Afu4zE-] disk not present in database, Submit result: database access error: Die Anfrage wurde abgebrochen: Die Anfrage wurde abgebrochen..


==== Log checksum 2B156BAFE669709D607C02F0CD50FD725BF3832D7EEAD56B0E0F4FFCC376A774 ====




Create a new paste based on this one


Comments: