[ create a new paste ] login | about

Link: http://codepad.org/mlKWptH6    [ raw code | fork ]

Plain Text, pasted on Mar 11:
1
2
3
4
5
6
7
8
9
10
11
12
13
14
15
16
17
18
19
20
21
22
23
24
25
26
27
28
29
30
31
32
33
34
35
36
37
38
39
40
41
42
43
44
45
46
47
48
49
50
51
52
53
54
55
56
57
58
59
60
61
62
63
64
65
66
67
68
69
70
71
72
73
74
75
76
77
78
79
80
81
82
83
84
85
86
87
88
89
90
91
92
93
94
95
96
97
98
99
100
101
102
103
104
105
106
107
108
109
110
111
112
113
114
115
116
117
118
119
120
121
122
123
124
125
126
127
128
129
130
131
132
133
134
135
136
137
138
139
140
141
142
143
144
145
146
147
148
149
150
151
152
153
154
155
156
157
158
159
160
161
162
163
164
165
166
167
168
169
170
171
172
173
174
175
176
177
178
179
180
181
182
183
184
185
186
187
188
189
190
191
192
193
194
195
196
197
198
199
200
201
202
203
204
205
206
207
208
209
210
211
212
213
214
215
216
217
218
219
220
221
222
223
224
225
226
227
228
229
230
231
232
233
234
235
236
237
238
239
240
241
242
243
244
245
246
247
248
249
250
251
252
253
254
255
256
257
258
259
260
261
262
263
264
265
266
267
268
269
270
271
272
273
274
275
276
277
278
279
280
281
282
283
284
285
286
287
288
289
290
291
292
293
294
295
296
297
298
299
300
301
302
303
304
305
306
307
308
309
310
311
312
313
314
315
316
317
318
319
320
321
322
323
324
325
326
327
328
329
330
331
332
333
334
335
336
337
338
339
340
341
342
343
344
345
346
347
348
349
350
351
352
353
354
355
356
357
358
359
360
361
362
363
364
365
366
367
368
369
370
371
372
373
374
375
376
377
378
379
380
381
382
383
384
385
386
387
388
389
390
391
392
393
394
395
396
397
398
399
400
401
402
403
404
405
406
407
408
409
410
411
412
413
414
415
416
417
418
419
420
421
422
423
424
425
426
427
428
429
430
431
432
433
434
435
436
437
438
439
440
441
442
443
444
445
446
447
448
449
450
451
452
453
454
455
456
457
458
459
460
461
462
463
464
465
466
467
468
469
470
471
472
473
474
475
476
477
478
479
480
481
482
483
484
485
486
487
488
489
490
491
492
493
494
495
496
497
498
499
500
501
502
503
504
505
506
507
508
509
510
511
512
513
514
515
516
517
518
519
520
521
522
523
524
525
526
527
528
529
530
531
532
533
534
535
536
537
538
539
540
541
542
543
544
545
546
547
548
549
550
551
552
553
554
555
556
557
558
559
560
561
562
563
564
565
566
567
568
569
570
571
572
573
574
575
576
577
578
579
580
581
582
583
584
585
586
587
588
589
590
591
592
593
594
595
596
597
598
599
600
601
602
603
604
605
606
607
608
609
610
611
612
613
614
615
616
617
618
619
620
621
622
623
624
625
626
627
628
629
630
631
632
633
634
635
636
637
638
639
640
641
642
643
644
645
646
647
648
649
650
651
652
653
654
655
656
657
658
659
660
661
662
663
664
665
666
667
668
669
670
671
672
673
674
675
676
677
678
679
680
681
682
683
684
685
686
687
688
689
690
691
692
693
694
695
696
697
698
699
700
701
702
703
704
705
706
707
708
709
710
711
712
713
714
715
716
717
718
719
720
721
722
723
724
725
726
727
728
729
730
731
732
733
734
735
736
737
738
739
740
741
742
743
744
745
746
747
748
749
750
751
752
753
754
755
756
757
758
759
760
761
762
763
764
765
766
767
768
769
770
771
772
773
774
775
776
777
778
779
780
781
782
783
784
785
786
787
788
789
790
791
792
793
794
795
796
797
798
799
800
801
802
803
804
805
806
807
808
809
810
811
812
813
814
815
816
817
818
819
820
821
822
823
824
825
826
827
828
829
830
831
832
833
834
835
836
837
838
839
840
841
842
843
844
845
846
847
848
849
850
851
852
853
854
855
856
857
858
859
860
861
862
863
864
865
866
867
868
869
870
871
872
873
874
875
876
877
878
879
880
881
882
883
884
885
886
887
888
889
890
891
892
893
894
895
896
897
898
899
900
901
902
903
904
905
906
907
908
909
910
911
912
913
914
915
916
917
918
919
920
921
922
923
924
925
926
927
928
929
930
931
932
933
934
935
936
937
938
939
940
941
942
943
944
945
946
947
948
949
950
951
952
953
954
955
956
957
958
959
960
961
962
963
964
965
966
967
968
969
970
971
972
973
974
975
976
977
978
979
980
981
982
983
984
985
986
987
988
989
990
991
992
993
994
995
996
997
998
999
1000
1001
1002
1003
1004
1005
1006
1007
1008
1009
1010
1011
1012
1013
1014
1015
1016
1017
1018
1019
1020
1021
1022
1023
1024
1025
1026
1027
1028
1029
1030
1031
1032
1033
1034
1035
1036
1037
1038
1039
1040
1041
1042
1043
1044
1045
1046
1047
1048
1049
1050
1051
1052
1053
1054
1055
1056
1057
1058
1059
1060
1061
1062
1063
1064
1065
1066
1067
1068
1069
1070
1071
1072
1073
1074
1075
1076
1077
1078
1079
1080
Disc Title:     00000109_LAST_WALTZ
Disc Size:      24,479,266,816 bytes
Protection:     AACS(v1)
BD-Java:        No
BDInfo:         0.5.8.1 (compatible layout created by DVDFab 9.3.1.2)

Notes:          

BDINFO HOME:
  Cinema Squid (original standalone tool)
    http://www.cinemasquid.com/blu-ray/tools/bdinfo
  DVDFab
    http://www.dvdfab.cn/bdinfo.htm

INCLUDES FORUMS REPORT FOR:
  AVS Forum Blu-ray Audio and Video Specifications Thread
    http://www.avsforum.com/avs-vb/showthread.php?t=1155731


********************
PLAYLIST: 00009.MPLS  
********************

<--- BEGIN FORUMS PASTE --->
[code]
                                                                                                                  Total   Video                                             
Title                                                           Codec   Length   Movie Size      Disc Size       Bitrate Bitrate Main Audio Track                          Secondary Audio Track
-----                                                           ------  -------  --------------  --------------  ------- ------- ------------------                        ---------------------
00009.MPLS                                                      MPEG-2  1:57:13  21,443,340,288  24,479,266,816  24.39   17.53   DD AC3 5.1                                LPCM 5.1LPCM 5.1
[/code]

[code]

DISC INFO:

Disc Title:     00000109_LAST_WALTZ
Disc Size:      24,479,266,816 bytes
Protection:     AACS(v1)
BD-Java:        No
BDInfo:         0.5.8.1 (compatible layout created by DVDFab 9.3.1.2)

PLAYLIST REPORT:

Name:                   00009.MPLS  
Length:                 1:57:13.693 (h:m:s.ms)
Size:                   21,443,340,288 bytes
Total Bitrate:          24.39 Mbps

VIDEO:

Codec                   Bitrate             Description     
-----                   -------             -----------     
MPEG-2 Video            17531 kbps          1080p / 23.976 fps / 16:9 / 

AUDIO:

Codec                           Language        Bitrate         Description     
-----                           --------        -------         -----------     
Dolby Digital Audio             English         640 kbps        5.1 / 48 kHz / 640 kbps
LPCM Audio                      English         4608 kbps       5.1 / 48 kHz / 4608 kbps / 16-bit
Dolby Digital Audio             English         192 kbps        2.0 / 48 kHz / 192 kbps / Dolby Surround

SUBTITLES:

Codec                           Language        Bitrate         Description     
-----                           --------        -------         -----------     
Presentation Graphics           English         18.03 kbps                      
Presentation Graphics           French          17.283 kbps                     
Presentation Graphics           Spanish         18.934 kbps                     
Presentation Graphics           Portuguese      18.342 kbps                     
Presentation Graphics           Chinese         13.662 kbps                     
Presentation Graphics           Korean          13.205 kbps                     
Presentation Graphics           Thai            14.879 kbps                     
Presentation Graphics           English         22.078 kbps                     

FILES:

Name            Time In         Length          Size            Total Bitrate   
----            -------         ------          ----            -------------   
00008.M2TS      0:00:00.000     0:58:34.177     10,712,973,312  24,388 kbps     
00009.M2TS      0:58:34.177     0:58:39.516     10,730,366,976  24,390 kbps     

CHAPTERS:

Number          Time In         Length          Avg Video Rate  Max 1-Sec Rate  Max 1-Sec Time  Max 5-Sec Rate  Max 5-Sec Time  Max 10Sec Rate  Max 10Sec Time  Avg Frame Size  Max Frame Size  Max Frame Time  
------          -------         ------          --------------  --------------  --------------  --------------  --------------  --------------  --------------  --------------  --------------  --------------  
1               0:00:00.000     0:04:07.497     15,703 kbps     29,261 kbps     0:00:02.836     27,895 kbps     0:00:03.086     21,679 kbps     0:00:02.085     81,858 bytes    500,986 bytes   0:00:55.930     
2               0:04:07.497     0:03:35.757     16,799 kbps     24,840 kbps     0:04:49.622     22,828 kbps     0:04:46.369     21,211 kbps     0:05:14.772     87,585 bytes    429,678 bytes   0:07:06.050     
3               0:07:43.254     0:04:56.879     17,234 kbps     23,963 kbps     0:08:03.608     21,686 kbps     0:08:03.316     21,422 kbps     0:08:03.608     89,852 bytes    529,752 bytes   0:08:13.367     
4               0:12:40.134     0:03:18.698     16,756 kbps     22,903 kbps     0:13:23.552     18,500 kbps     0:15:53.827     18,258 kbps     0:15:48.822     87,359 bytes    509,030 bytes   0:13:37.066     
5               0:15:58.832     0:05:19.902     19,829 kbps     26,654 kbps     0:19:21.285     24,046 kbps     0:19:48.687     23,429 kbps     0:19:46.059     103,381 bytes   491,231 bytes   0:21:18.652     
6               0:21:18.735     0:05:26.409     17,622 kbps     26,718 kbps     0:26:15.615     25,262 kbps     0:26:13.572     25,055 kbps     0:26:08.567     91,873 bytes    450,990 bytes   0:26:17.325     
7               0:26:45.145     0:03:42.722     16,016 kbps     22,228 kbps     0:27:18.470     19,840 kbps     0:27:03.872     19,705 kbps     0:27:03.663     83,502 bytes    411,173 bytes   0:30:27.742     
8               0:30:27.867     0:06:02.612     17,255 kbps     26,326 kbps     0:36:29.478     21,896 kbps     0:35:22.620     21,763 kbps     0:35:17.740     89,962 bytes    448,429 bytes   0:30:53.518     
9               0:36:30.479     0:04:59.716     17,883 kbps     28,172 kbps     0:40:29.301     26,440 kbps     0:40:31.345     25,305 kbps     0:40:48.696     93,234 bytes    474,381 bytes   0:41:30.196     
10              0:41:30.196     0:05:43.092     17,344 kbps     27,004 kbps     0:45:37.401     22,884 kbps     0:45:35.858     22,061 kbps     0:43:43.203     90,424 bytes    482,336 bytes   0:42:21.580     
11              0:47:13.288     0:06:19.670     18,724 kbps     27,484 kbps     0:51:11.193     26,281 kbps     0:51:07.564     25,893 kbps     0:51:03.185     97,619 bytes    500,710 bytes   0:48:36.455     
12              0:53:32.959     0:05:01.217     17,631 kbps     26,153 kbps     0:56:36.643     22,981 kbps     0:54:39.526     22,406 kbps     0:54:39.526     91,936 bytes    413,197 bytes   0:54:54.958     
13              0:58:34.177     0:06:30.640     17,210 kbps     29,002 kbps     0:58:42.477     27,695 kbps     0:58:40.892     27,006 kbps     0:58:37.847     89,708 bytes    493,864 bytes   1:05:04.317     
14              1:05:04.817     0:03:59.822     17,642 kbps     29,129 kbps     1:07:34.925     27,004 kbps     1:07:34.925     26,820 kbps     1:07:34.925     91,978 bytes    514,470 bytes   1:09:04.557     
15              1:09:04.640     0:04:33.106     16,814 kbps     20,386 kbps     1:10:25.596     18,996 kbps     1:09:04.598     18,784 kbps     1:09:04.598     87,663 bytes    468,050 bytes   1:13:37.746     
16              1:13:37.746     0:07:38.332     18,812 kbps     26,714 kbps     1:19:26.178     24,847 kbps     1:19:22.174     24,469 kbps     1:19:25.177     98,082 bytes    509,554 bytes   1:17:31.313     
17              1:21:16.079     0:06:00.818     17,363 kbps     26,317 kbps     1:24:15.050     24,885 kbps     1:24:32.108     24,794 kbps     1:24:30.857     90,525 bytes    440,921 bytes   1:22:24.356     
18              1:27:16.898     0:04:35.358     17,623 kbps     31,225 kbps     1:29:05.590     28,584 kbps     1:29:05.590     27,630 kbps     1:29:05.590     91,881 bytes    498,837 bytes   1:31:52.173     
19              1:31:52.256     0:05:09.434     17,477 kbps     30,676 kbps     1:36:34.830     28,544 kbps     1:36:36.916     28,429 kbps     1:36:37.291     91,117 bytes    494,111 bytes   1:36:36.457     
20              1:37:01.690     0:01:14.240     17,311 kbps     26,796 kbps     1:38:10.676     24,684 kbps     1:38:07.756     23,581 kbps     1:38:05.129     90,255 bytes    425,528 bytes   1:37:02.358     
21              1:38:15.931     0:04:29.143     19,127 kbps     29,966 kbps     1:40:04.248     28,676 kbps     1:40:03.122     26,025 kbps     1:40:03.122     99,721 bytes    419,131 bytes   1:40:03.288     
22              1:42:45.075     0:03:20.283     19,323 kbps     26,934 kbps     1:43:52.392     24,072 kbps     1:43:46.511     23,493 kbps     1:43:46.511     100,746 bytes   465,301 bytes   1:46:05.359     
23              1:46:05.359     0:04:58.464     17,283 kbps     22,541 kbps     1:50:49.851     19,246 kbps     1:46:37.307     18,699 kbps     1:49:43.952     90,106 bytes    498,738 bytes   1:48:16.281     
24              1:51:03.823     0:06:09.869     15,408 kbps     20,705 kbps     1:52:39.169     19,559 kbps     1:52:38.960     19,489 kbps     1:52:38.960     80,322 bytes    375,963 bytes   1:54:46.546     

STREAM DIAGNOSTICS:

File            PID             Type            Codec           Language                Seconds                 Bitrate                 Bytes           Packets         
----            ---             ----            -----           --------                --------------          --------------          -------------   -----           
00008.M2TS      4113 (0x1011)   0x02            MPEG-2                                  3514.14                 17531.2                 7,700,856,865   41,901,566      
00008.M2TS      4352 (0x1100)   0x81            AC3             eng (English)           3514.18                 640                     281,136,640     1,647,285       
00008.M2TS      4353 (0x1101)   0x80            LPCM            eng (English)           3514.18                 4608                    2,026,979,024   11,245,376      
00008.M2TS      4354 (0x1102)   0x81            AC3             eng (English)           3514.18                 192                     84,340,992      549,095         
00008.M2TS      4608 (0x1200)   0x90            PGS             eng (English)           3495.99                 18.03                   7,879,294       44,052          
00008.M2TS      4609 (0x1201)   0x90            PGS             fra (French)            3499.58                 17.283                  7,560,593       42,523          
00008.M2TS      4610 (0x1202)   0x90            PGS             spa (Spanish)           3499.33                 18.934                  8,282,095       46,490          
00008.M2TS      4611 (0x1203)   0x90            PGS             por (Portuguese)        3500.08                 18.342                  8,024,900       44,833          
00008.M2TS      4612 (0x1204)   0x90            PGS             zho (Chinese)           3500.08                 13.662                  5,977,110       33,778          
00008.M2TS      4613 (0x1205)   0x90            PGS             kor (Korean)            3500.08                 13.205                  5,777,309       32,683          
00008.M2TS      4614 (0x1206)   0x90            PGS             tha (Thai)              3500.08                 14.879                  6,509,712       36,656          
00008.M2TS      4615 (0x1207)   0x90            PGS             eng (English)           3495.99                 22.078                  9,648,256       54,032          
00009.M2TS      4113 (0x1011)   0x02            MPEG-2                                  3519.35                 17575.6                 7,731,820,814   42,069,788      
00009.M2TS      4352 (0x1100)   0x81            AC3             eng (English)           3519.49                 640                     281,561,600     1,649,775       
00009.M2TS      4353 (0x1101)   0x80            LPCM            eng (English)           3519.51                 4608                    2,030,059,136   11,262,464      
00009.M2TS      4354 (0x1102)   0x81            AC3             eng (English)           3519.49                 192                     84,468,480      549,925         
00009.M2TS      4608 (0x1200)   0x90            PGS             eng (English)           3128.88                 13.797                  5,396,134       30,211          
00009.M2TS      4609 (0x1201)   0x90            PGS             fra (French)            3128.25                 13.968                  5,461,808       30,739          
00009.M2TS      4610 (0x1202)   0x90            PGS             spa (Spanish)           3128.25                 14.808                  5,790,535       32,543          
00009.M2TS      4611 (0x1203)   0x90            PGS             por (Portuguese)        3128.88                 13.877                  5,427,538       30,372          
00009.M2TS      4612 (0x1204)   0x90            PGS             zho (Chinese)           3128.88                 10.816                  4,230,393       23,891          
00009.M2TS      4613 (0x1205)   0x90            PGS             kor (Korean)            3292.50                 9.941                   4,091,319       23,112          
00009.M2TS      4614 (0x1206)   0x90            PGS             tha (Thai)              3128.88                 11.646                  4,554,943       25,658          
00009.M2TS      4615 (0x1207)   0x90            PGS             eng (English)           3151.57                 18.535                  7,301,657       40,922          

[/code]
<---- END FORUMS PASTE ---->

QUICK SUMMARY:

Disc Title: 00000109_LAST_WALTZ
Disc Size: 24,479,266,816 bytes
Protection: AACS(v1)
BD-Java: No
Playlist: 00009.MPLS  
Size: 21,443,340,288 bytes
Length: 1:57:13.693
Total Bitrate: 24.39 Mbps
Video: MPEG-2 Video / 17531 kbps / 1080p / 23.976 fps / 16:9 / 
Audio: English / Dolby Digital Audio / 5.1 / 48 kHz / 640 kbps
Audio: English / LPCM Audio / 5.1 / 48 kHz / 4608 kbps / 16-bit
Audio: English / Dolby Digital Audio / 2.0 / 48 kHz / 192 kbps / Dolby Surround
Subtitle: English / 18.03 kbps  
Subtitle: French / 17.283 kbps  
Subtitle: Spanish / 18.934 kbps  
Subtitle: Portuguese / 18.342 kbps  
Subtitle: Chinese / 13.662 kbps  
Subtitle: Korean / 13.205 kbps  
Subtitle: Thai / 14.879 kbps  
Subtitle: English / 22.078 kbps  


********************
PLAYLIST: 00008.MPLS  
********************

<--- BEGIN FORUMS PASTE --->
[code]
                                                                                                                  Total   Video                                             
Title                                                           Codec   Length   Movie Size      Disc Size       Bitrate Bitrate Main Audio Track                          Secondary Audio Track
-----                                                           ------  -------  --------------  --------------  ------- ------- ------------------                        ---------------------
00008.MPLS                                                      MPEG-2  0:58:39  10,730,366,976  24,479,266,816  24.39   17.58   DD AC3 5.1                                LPCM 5.1LPCM 5.1
[/code]

[code]

DISC INFO:

Disc Title:     00000109_LAST_WALTZ
Disc Size:      24,479,266,816 bytes
Protection:     AACS(v1)
BD-Java:        No
BDInfo:         0.5.8.1 (compatible layout created by DVDFab 9.3.1.2)

PLAYLIST REPORT:

Name:                   00008.MPLS  
Length:                 0:58:39.516 (h:m:s.ms)
Size:                   10,730,366,976 bytes
Total Bitrate:          24.39 Mbps

VIDEO:

Codec                   Bitrate             Description     
-----                   -------             -----------     
MPEG-2 Video            17576 kbps          1080p / 23.976 fps / 16:9 / 

AUDIO:

Codec                           Language        Bitrate         Description     
-----                           --------        -------         -----------     
Dolby Digital Audio             English         640 kbps        5.1 / 48 kHz / 640 kbps
LPCM Audio                      English         4608 kbps       5.1 / 48 kHz / 4608 kbps / 16-bit
Dolby Digital Audio             English         192 kbps        2.0 / 48 kHz / 192 kbps / Dolby Surround

SUBTITLES:

Codec                           Language        Bitrate         Description     
-----                           --------        -------         -----------     
Presentation Graphics           English         13.797 kbps                     
Presentation Graphics           French          13.968 kbps                     
Presentation Graphics           Spanish         14.808 kbps                     
Presentation Graphics           Portuguese      13.877 kbps                     
Presentation Graphics           Chinese         10.816 kbps                     
Presentation Graphics           Korean          9.941 kbps                      
Presentation Graphics           Thai            11.646 kbps                     
Presentation Graphics           English         18.535 kbps                     

FILES:

Name            Time In         Length          Size            Total Bitrate   
----            -------         ------          ----            -------------   
00009.M2TS      0:00:00.000     0:58:39.516     10,730,366,976  24,390 kbps     

CHAPTERS:

Number          Time In         Length          Avg Video Rate  Max 1-Sec Rate  Max 1-Sec Time  Max 5-Sec Rate  Max 5-Sec Time  Max 10Sec Rate  Max 10Sec Time  Avg Frame Size  Max Frame Size  Max Frame Time  
------          -------         ------          --------------  --------------  --------------  --------------  --------------  --------------  --------------  --------------  --------------  --------------  
1               0:00:00.000     0:06:30.640     17,210 kbps     29,002 kbps     0:00:08.299     27,695 kbps     0:00:06.715     27,006 kbps     0:00:03.670     89,708 bytes    493,864 bytes   0:06:30.139     
2               0:06:30.640     0:03:59.822     17,642 kbps     29,129 kbps     0:09:00.748     27,004 kbps     0:09:00.748     26,820 kbps     0:09:00.748     91,978 bytes    514,470 bytes   0:10:30.379     
3               0:10:30.463     0:04:33.106     16,814 kbps     20,386 kbps     0:11:51.419     18,996 kbps     0:10:30.421     18,784 kbps     0:10:30.421     87,663 bytes    468,050 bytes   0:15:03.569     
4               0:15:03.569     0:07:38.332     18,812 kbps     26,714 kbps     0:20:52.000     24,847 kbps     0:20:47.996     24,469 kbps     0:20:50.999     98,082 bytes    509,554 bytes   0:18:57.136     
5               0:22:41.902     0:06:00.818     17,363 kbps     26,317 kbps     0:25:40.872     24,885 kbps     0:25:57.931     24,794 kbps     0:25:56.680     90,525 bytes    440,921 bytes   0:23:50.178     
6               0:28:42.721     0:04:35.358     17,623 kbps     31,225 kbps     0:30:31.412     28,584 kbps     0:30:31.412     27,630 kbps     0:30:31.412     91,881 bytes    498,837 bytes   0:33:17.996     
7               0:33:18.079     0:05:09.434     17,477 kbps     30,676 kbps     0:38:00.653     28,544 kbps     0:38:02.738     28,429 kbps     0:38:03.114     91,117 bytes    494,111 bytes   0:38:02.279     
8               0:38:27.513     0:01:14.240     17,311 kbps     26,796 kbps     0:39:36.499     24,684 kbps     0:39:33.579     23,581 kbps     0:39:30.951     90,255 bytes    425,528 bytes   0:38:28.180     
9               0:39:41.754     0:04:29.143     19,127 kbps     29,966 kbps     0:41:30.070     28,676 kbps     0:41:28.944     26,025 kbps     0:41:28.944     99,721 bytes    419,131 bytes   0:41:29.111     
10              0:44:10.898     0:03:20.283     19,329 kbps     26,934 kbps     0:45:18.215     24,072 kbps     0:45:12.334     23,493 kbps     0:45:12.334     100,754 bytes   465,301 bytes   0:47:31.181     
11              0:47:31.181     0:04:58.464     17,279 kbps     22,541 kbps     0:52:15.674     19,246 kbps     0:48:03.130     18,699 kbps     0:51:09.775     90,099 bytes    498,738 bytes   0:49:42.104     
12              0:52:29.646     0:06:09.869     15,408 kbps     20,705 kbps     0:54:04.991     19,559 kbps     0:54:04.783     19,489 kbps     0:54:04.783     80,322 bytes    375,963 bytes   0:56:12.368     

STREAM DIAGNOSTICS:

File            PID             Type            Codec           Language                Seconds                 Bitrate                 Bytes           Packets         
----            ---             ----            -----           --------                --------------          --------------          -------------   -----           
00009.M2TS      4113 (0x1011)   0x02            MPEG-2                                  3519.35                 17575.6                 7,731,820,814   42,069,788      
00009.M2TS      4352 (0x1100)   0x81            AC3             eng (English)           3519.49                 640                     281,561,600     1,649,775       
00009.M2TS      4353 (0x1101)   0x80            LPCM            eng (English)           3519.51                 4608                    2,030,059,136   11,262,464      
00009.M2TS      4354 (0x1102)   0x81            AC3             eng (English)           3519.49                 192                     84,468,480      549,925         
00009.M2TS      4608 (0x1200)   0x90            PGS             eng (English)           3128.88                 13.797                  5,396,134       30,211          
00009.M2TS      4609 (0x1201)   0x90            PGS             fra (French)            3128.25                 13.968                  5,461,808       30,739          
00009.M2TS      4610 (0x1202)   0x90            PGS             spa (Spanish)           3128.25                 14.808                  5,790,535       32,543          
00009.M2TS      4611 (0x1203)   0x90            PGS             por (Portuguese)        3128.88                 13.877                  5,427,538       30,372          
00009.M2TS      4612 (0x1204)   0x90            PGS             zho (Chinese)           3128.88                 10.816                  4,230,393       23,891          
00009.M2TS      4613 (0x1205)   0x90            PGS             kor (Korean)            3292.50                 9.941                   4,091,319       23,112          
00009.M2TS      4614 (0x1206)   0x90            PGS             tha (Thai)              3128.88                 11.646                  4,554,943       25,658          
00009.M2TS      4615 (0x1207)   0x90            PGS             eng (English)           3151.57                 18.535                  7,301,657       40,922          

[/code]
<---- END FORUMS PASTE ---->

QUICK SUMMARY:

Disc Title: 00000109_LAST_WALTZ
Disc Size: 24,479,266,816 bytes
Protection: AACS(v1)
BD-Java: No
Playlist: 00008.MPLS  
Size: 10,730,366,976 bytes
Length: 0:58:39.516
Total Bitrate: 24.39 Mbps
Video: MPEG-2 Video / 17576 kbps / 1080p / 23.976 fps / 16:9 / 
Audio: English / Dolby Digital Audio / 5.1 / 48 kHz / 640 kbps
Audio: English / LPCM Audio / 5.1 / 48 kHz / 4608 kbps / 16-bit
Audio: English / Dolby Digital Audio / 2.0 / 48 kHz / 192 kbps / Dolby Surround
Subtitle: English / 13.797 kbps  
Subtitle: French / 13.968 kbps  
Subtitle: Spanish / 14.808 kbps  
Subtitle: Portuguese / 13.877 kbps  
Subtitle: Chinese / 10.816 kbps  
Subtitle: Korean / 9.941 kbps  
Subtitle: Thai / 11.646 kbps  
Subtitle: English / 18.535 kbps  


********************
PLAYLIST: 00007.MPLS  
********************

<--- BEGIN FORUMS PASTE --->
[code]
                                                                                                                  Total   Video                                             
Title                                                           Codec   Length   Movie Size      Disc Size       Bitrate Bitrate Main Audio Track                          Secondary Audio Track
-----                                                           ------  -------  --------------  --------------  ------- ------- ------------------                        ---------------------
00007.MPLS                                                      MPEG-2  0:58:34  10,712,973,312  24,479,266,816  24.39   17.53   DD AC3 5.1                                LPCM 5.1LPCM 5.1
[/code]

[code]

DISC INFO:

Disc Title:     00000109_LAST_WALTZ
Disc Size:      24,479,266,816 bytes
Protection:     AACS(v1)
BD-Java:        No
BDInfo:         0.5.8.1 (compatible layout created by DVDFab 9.3.1.2)

PLAYLIST REPORT:

Name:                   00007.MPLS  
Length:                 0:58:34.177 (h:m:s.ms)
Size:                   10,712,973,312 bytes
Total Bitrate:          24.39 Mbps

VIDEO:

Codec                   Bitrate             Description     
-----                   -------             -----------     
MPEG-2 Video            17531 kbps          1080p / 23.976 fps / 16:9 / 

AUDIO:

Codec                           Language        Bitrate         Description     
-----                           --------        -------         -----------     
Dolby Digital Audio             English         640 kbps        5.1 / 48 kHz / 640 kbps
LPCM Audio                      English         4608 kbps       5.1 / 48 kHz / 4608 kbps / 16-bit
Dolby Digital Audio             English         192 kbps        2.0 / 48 kHz / 192 kbps / Dolby Surround

SUBTITLES:

Codec                           Language        Bitrate         Description     
-----                           --------        -------         -----------     
Presentation Graphics           English         18.03 kbps                      
Presentation Graphics           French          17.283 kbps                     
Presentation Graphics           Spanish         18.934 kbps                     
Presentation Graphics           Portuguese      18.342 kbps                     
Presentation Graphics           Chinese         13.662 kbps                     
Presentation Graphics           Korean          13.205 kbps                     
Presentation Graphics           Thai            14.879 kbps                     
Presentation Graphics           English         22.078 kbps                     

FILES:

Name            Time In         Length          Size            Total Bitrate   
----            -------         ------          ----            -------------   
00008.M2TS      0:00:00.000     0:58:34.177     10,712,973,312  24,388 kbps     

CHAPTERS:

Number          Time In         Length          Avg Video Rate  Max 1-Sec Rate  Max 1-Sec Time  Max 5-Sec Rate  Max 5-Sec Time  Max 10Sec Rate  Max 10Sec Time  Avg Frame Size  Max Frame Size  Max Frame Time  
------          -------         ------          --------------  --------------  --------------  --------------  --------------  --------------  --------------  --------------  --------------  --------------  
1               0:00:00.000     0:04:07.497     15,703 kbps     29,261 kbps     0:00:02.836     27,895 kbps     0:00:03.086     21,679 kbps     0:00:02.085     81,858 bytes    500,986 bytes   0:00:55.930     
2               0:04:07.497     0:03:35.757     16,799 kbps     24,840 kbps     0:04:49.622     22,828 kbps     0:04:46.369     21,211 kbps     0:05:14.772     87,585 bytes    429,678 bytes   0:07:06.050     
3               0:07:43.254     0:04:56.879     17,234 kbps     23,963 kbps     0:08:03.608     21,686 kbps     0:08:03.316     21,422 kbps     0:08:03.608     89,852 bytes    529,752 bytes   0:08:13.367     
4               0:12:40.134     0:03:18.698     16,756 kbps     22,903 kbps     0:13:23.552     18,500 kbps     0:15:53.827     18,258 kbps     0:15:48.822     87,359 bytes    509,030 bytes   0:13:37.066     
5               0:15:58.832     0:05:19.902     19,829 kbps     26,654 kbps     0:19:21.285     24,046 kbps     0:19:48.687     23,429 kbps     0:19:46.059     103,381 bytes   491,231 bytes   0:21:18.652     
6               0:21:18.735     0:05:26.409     17,622 kbps     26,718 kbps     0:26:15.615     25,262 kbps     0:26:13.572     25,055 kbps     0:26:08.567     91,873 bytes    450,990 bytes   0:26:17.325     
7               0:26:45.145     0:03:42.722     16,016 kbps     22,228 kbps     0:27:18.470     19,840 kbps     0:27:03.872     19,705 kbps     0:27:03.663     83,502 bytes    411,173 bytes   0:30:27.742     
8               0:30:27.867     0:06:02.612     17,255 kbps     26,326 kbps     0:36:29.478     21,896 kbps     0:35:22.620     21,763 kbps     0:35:17.740     89,962 bytes    448,429 bytes   0:30:53.518     
9               0:36:30.479     0:04:59.716     17,883 kbps     28,172 kbps     0:40:29.301     26,440 kbps     0:40:31.345     25,305 kbps     0:40:48.696     93,234 bytes    474,381 bytes   0:41:30.196     
10              0:41:30.196     0:05:43.092     17,344 kbps     27,004 kbps     0:45:37.401     22,884 kbps     0:45:35.858     22,061 kbps     0:43:43.203     90,424 bytes    482,336 bytes   0:42:21.580     
11              0:47:13.288     0:06:19.670     18,724 kbps     27,484 kbps     0:51:11.193     26,281 kbps     0:51:07.564     25,893 kbps     0:51:03.185     97,619 bytes    500,710 bytes   0:48:36.455     
12              0:53:32.959     0:05:01.217     17,631 kbps     26,153 kbps     0:56:36.643     22,981 kbps     0:54:39.526     22,406 kbps     0:54:39.526     91,936 bytes    413,197 bytes   0:54:54.958     

STREAM DIAGNOSTICS:

File            PID             Type            Codec           Language                Seconds                 Bitrate                 Bytes           Packets         
----            ---             ----            -----           --------                --------------          --------------          -------------   -----           
00008.M2TS      4113 (0x1011)   0x02            MPEG-2                                  3514.14                 17531.2                 7,700,856,865   41,901,566      
00008.M2TS      4352 (0x1100)   0x81            AC3             eng (English)           3514.18                 640                     281,136,640     1,647,285       
00008.M2TS      4353 (0x1101)   0x80            LPCM            eng (English)           3514.18                 4608                    2,026,979,024   11,245,376      
00008.M2TS      4354 (0x1102)   0x81            AC3             eng (English)           3514.18                 192                     84,340,992      549,095         
00008.M2TS      4608 (0x1200)   0x90            PGS             eng (English)           3495.99                 18.03                   7,879,294       44,052          
00008.M2TS      4609 (0x1201)   0x90            PGS             fra (French)            3499.58                 17.283                  7,560,593       42,523          
00008.M2TS      4610 (0x1202)   0x90            PGS             spa (Spanish)           3499.33                 18.934                  8,282,095       46,490          
00008.M2TS      4611 (0x1203)   0x90            PGS             por (Portuguese)        3500.08                 18.342                  8,024,900       44,833          
00008.M2TS      4612 (0x1204)   0x90            PGS             zho (Chinese)           3500.08                 13.662                  5,977,110       33,778          
00008.M2TS      4613 (0x1205)   0x90            PGS             kor (Korean)            3500.08                 13.205                  5,777,309       32,683          
00008.M2TS      4614 (0x1206)   0x90            PGS             tha (Thai)              3500.08                 14.879                  6,509,712       36,656          
00008.M2TS      4615 (0x1207)   0x90            PGS             eng (English)           3495.99                 22.078                  9,648,256       54,032          

[/code]
<---- END FORUMS PASTE ---->

QUICK SUMMARY:

Disc Title: 00000109_LAST_WALTZ
Disc Size: 24,479,266,816 bytes
Protection: AACS(v1)
BD-Java: No
Playlist: 00007.MPLS  
Size: 10,712,973,312 bytes
Length: 0:58:34.177
Total Bitrate: 24.39 Mbps
Video: MPEG-2 Video / 17531 kbps / 1080p / 23.976 fps / 16:9 / 
Audio: English / Dolby Digital Audio / 5.1 / 48 kHz / 640 kbps
Audio: English / LPCM Audio / 5.1 / 48 kHz / 4608 kbps / 16-bit
Audio: English / Dolby Digital Audio / 2.0 / 48 kHz / 192 kbps / Dolby Surround
Subtitle: English / 18.03 kbps  
Subtitle: French / 17.283 kbps  
Subtitle: Spanish / 18.934 kbps  
Subtitle: Portuguese / 18.342 kbps  
Subtitle: Chinese / 13.662 kbps  
Subtitle: Korean / 13.205 kbps  
Subtitle: Thai / 14.879 kbps  
Subtitle: English / 22.078 kbps  


********************
PLAYLIST: 00002.MPLS  
********************

<--- BEGIN FORUMS PASTE --->
[code]
                                                                                                                  Total   Video                                             
Title                                                           Codec   Length   Movie Size      Disc Size       Bitrate Bitrate Main Audio Track                          Secondary Audio Track
-----                                                           ------  -------  --------------  --------------  ------- ------- ------------------                        ---------------------
00002.MPLS                                                      MPEG-2  0:22:31  1,128,579,072   24,479,266,816  6.68    6.10    DD AC3 2.0                                
[/code]

[code]

DISC INFO:

Disc Title:     00000109_LAST_WALTZ
Disc Size:      24,479,266,816 bytes
Protection:     AACS(v1)
BD-Java:        No
BDInfo:         0.5.8.1 (compatible layout created by DVDFab 9.3.1.2)

PLAYLIST REPORT:

Name:                   00002.MPLS  
Length:                 0:22:31.316 (h:m:s.ms)
Size:                   1,128,579,072 bytes
Total Bitrate:          6.68 Mbps

VIDEO:

Codec                   Bitrate             Description     
-----                   -------             -----------     
MPEG-2 Video            6098 kbps           480i / 29.970 fps / 4:3 / 

AUDIO:

Codec                           Language        Bitrate         Description     
-----                           --------        -------         -----------     
Dolby Digital Audio             English         192 kbps        2.0 / 48 kHz / 192 kbps

FILES:

Name            Time In         Length          Size            Total Bitrate   
----            -------         ------          ----            -------------   
00003.M2TS      0:00:00.000     0:22:31.316     1,128,579,072   6,681 kbps      

CHAPTERS:

Number          Time In         Length          Avg Video Rate  Max 1-Sec Rate  Max 1-Sec Time  Max 5-Sec Rate  Max 5-Sec Time  Max 10Sec Rate  Max 10Sec Time  Avg Frame Size  Max Frame Size  Max Frame Time  
------          -------         ------          --------------  --------------  --------------  --------------  --------------  --------------  --------------  --------------  --------------  --------------  
1               0:00:00.000     0:22:31.316     6,098 kbps      13,174 kbps     0:08:27.874     9,317 kbps      0:01:57.283     8,649 kbps      0:08:22.668     25,433 bytes    147,714 bytes   0:13:42.221     

STREAM DIAGNOSTICS:

File            PID             Type            Codec           Language                Seconds                 Bitrate                 Bytes           Packets         
----            ---             ----            -----           --------                --------------          --------------          -------------   -----           
00003.M2TS      4113 (0x1011)   0x02            MPEG-2                                  1351.28                 6098.02                 1,030,019,634   5,621,579       
00003.M2TS      4352 (0x1100)   0x81            AC3             eng (English)           1351.30                 192                     32,431,872      211,145         

[/code]
<---- END FORUMS PASTE ---->

QUICK SUMMARY:

Disc Title: 00000109_LAST_WALTZ
Disc Size: 24,479,266,816 bytes
Protection: AACS(v1)
BD-Java: No
Playlist: 00002.MPLS  
Size: 1,128,579,072 bytes
Length: 0:22:31.316
Total Bitrate: 6.68 Mbps
Video: MPEG-2 Video / 6098 kbps / 480i / 29.970 fps / 4:3 / 
Audio: English / Dolby Digital Audio / 2.0 / 48 kHz / 192 kbps


********************
PLAYLIST: 00003.MPLS  
********************

<--- BEGIN FORUMS PASTE --->
[code]
                                                                                                                  Total   Video                                             
Title                                                           Codec   Length   Movie Size      Disc Size       Bitrate Bitrate Main Audio Track                          Secondary Audio Track
-----                                                           ------  -------  --------------  --------------  ------- ------- ------------------                        ---------------------
00003.MPLS                                                      MPEG-2  0:02:36  363,399,168     24,479,266,816  18.62   17.09   DD AC3 5.1                                
[/code]

[code]

DISC INFO:

Disc Title:     00000109_LAST_WALTZ
Disc Size:      24,479,266,816 bytes
Protection:     AACS(v1)
BD-Java:        No
BDInfo:         0.5.8.1 (compatible layout created by DVDFab 9.3.1.2)

PLAYLIST REPORT:

Name:                   00003.MPLS  
Length:                 0:02:36.156 (h:m:s.ms)
Size:                   363,399,168 bytes
Total Bitrate:          18.62 Mbps

VIDEO:

Codec                   Bitrate             Description     
-----                   -------             -----------     
MPEG-2 Video            17086 kbps          1080p / 23.976 fps / 16:9 / 

AUDIO:

Codec                           Language        Bitrate         Description     
-----                           --------        -------         -----------     
Dolby Digital Audio             English         640 kbps        5.1 / 48 kHz / 640 kbps

FILES:

Name            Time In         Length          Size            Total Bitrate   
----            -------         ------          ----            -------------   
00004.M2TS      0:00:00.000     0:02:36.156     363,399,168     18,617 kbps     

CHAPTERS:

Number          Time In         Length          Avg Video Rate  Max 1-Sec Rate  Max 1-Sec Time  Max 5-Sec Rate  Max 5-Sec Time  Max 10Sec Rate  Max 10Sec Time  Avg Frame Size  Max Frame Size  Max Frame Time  
------          -------         ------          --------------  --------------  --------------  --------------  --------------  --------------  --------------  --------------  --------------  --------------  
1               0:00:00.000     0:02:36.156     17,090 kbps     32,688 kbps     0:02:13.341     27,749 kbps     0:02:10.713     26,224 kbps     0:02:10.421     89,054 bytes    504,902 bytes   0:01:42.477     

STREAM DIAGNOSTICS:

File            PID             Type            Codec           Language                Seconds                 Bitrate                 Bytes           Packets         
----            ---             ----            -----           --------                --------------          --------------          -------------   -----           
00004.M2TS      4113 (0x1011)   0x02            MPEG-2                                  156.11                  17086                   333,421,668     1,814,225       
00004.M2TS      4352 (0x1100)   0x81            AC3             eng (English)           156.13                  640                     12,492,800      73,200          

[/code]
<---- END FORUMS PASTE ---->

QUICK SUMMARY:

Disc Title: 00000109_LAST_WALTZ
Disc Size: 24,479,266,816 bytes
Protection: AACS(v1)
BD-Java: No
Playlist: 00003.MPLS  
Size: 363,399,168 bytes
Length: 0:02:36.156
Total Bitrate: 18.62 Mbps
Video: MPEG-2 Video / 17086 kbps / 1080p / 23.976 fps / 16:9 / 
Audio: English / Dolby Digital Audio / 5.1 / 48 kHz / 640 kbps


********************
PLAYLIST: 00004.MPLS  
********************

<--- BEGIN FORUMS PASTE --->
[code]
                                                                                                                  Total   Video                                             
Title                                                           Codec   Length   Movie Size      Disc Size       Bitrate Bitrate Main Audio Track                          Secondary Audio Track
-----                                                           ------  -------  --------------  --------------  ------- ------- ------------------                        ---------------------
00004.MPLS                                                      MPEG-2  0:02:26  348,782,592     24,479,266,816  19.07   17.52   DD AC3 5.1                                
[/code]

[code]

DISC INFO:

Disc Title:     00000109_LAST_WALTZ
Disc Size:      24,479,266,816 bytes
Protection:     AACS(v1)
BD-Java:        No
BDInfo:         0.5.8.1 (compatible layout created by DVDFab 9.3.1.2)

PLAYLIST REPORT:

Name:                   00004.MPLS  
Length:                 0:02:26.312 (h:m:s.ms)
Size:                   348,782,592 bytes
Total Bitrate:          19.07 Mbps

VIDEO:

Codec                   Bitrate             Description     
-----                   -------             -----------     
MPEG-2 Video            17521 kbps          1080p / 23.976 fps / 16:9 / 

AUDIO:

Codec                           Language        Bitrate         Description     
-----                           --------        -------         -----------     
Dolby Digital Audio             English         640 kbps        5.1 / 48 kHz / 640 kbps

FILES:

Name            Time In         Length          Size            Total Bitrate   
----            -------         ------          ----            -------------   
00005.M2TS      0:00:00.000     0:02:26.312     348,782,592     19,070 kbps     

CHAPTERS:

Number          Time In         Length          Avg Video Rate  Max 1-Sec Rate  Max 1-Sec Time  Max 5-Sec Rate  Max 5-Sec Time  Max 10Sec Rate  Max 10Sec Time  Avg Frame Size  Max Frame Size  Max Frame Time  
------          -------         ------          --------------  --------------  --------------  --------------  --------------  --------------  --------------  --------------  --------------  --------------  
1               0:00:00.000     0:02:26.312     17,525 kbps     32,188 kbps     0:00:30.488     24,608 kbps     0:01:30.048     23,863 kbps     0:01:24.542     91,319 bytes    572,325 bytes   0:01:03.188     

STREAM DIAGNOSTICS:

File            PID             Type            Codec           Language                Seconds                 Bitrate                 Bytes           Packets         
----            ---             ----            -----           --------                --------------          --------------          -------------   -----           
00005.M2TS      4113 (0x1011)   0x02            MPEG-2                                  146.27                  17520.7                 320,347,192     1,743,043       
00005.M2TS      4352 (0x1100)   0x81            AC3             eng (English)           146.30                  640                     11,706,880      68,595          

[/code]
<---- END FORUMS PASTE ---->

QUICK SUMMARY:

Disc Title: 00000109_LAST_WALTZ
Disc Size: 24,479,266,816 bytes
Protection: AACS(v1)
BD-Java: No
Playlist: 00004.MPLS  
Size: 348,782,592 bytes
Length: 0:02:26.312
Total Bitrate: 19.07 Mbps
Video: MPEG-2 Video / 17521 kbps / 1080p / 23.976 fps / 16:9 / 
Audio: English / Dolby Digital Audio / 5.1 / 48 kHz / 640 kbps


********************
PLAYLIST: 00005.MPLS  
********************

<--- BEGIN FORUMS PASTE --->
[code]
                                                                                                                  Total   Video                                             
Title                                                           Codec   Length   Movie Size      Disc Size       Bitrate Bitrate Main Audio Track                          Secondary Audio Track
-----                                                           ------  -------  --------------  --------------  ------- ------- ------------------                        ---------------------
00005.MPLS                                                      MPEG-2  0:02:14  290,156,544     24,479,266,816  17.27   15.80   DD AC3 5.1                                
[/code]

[code]

DISC INFO:

Disc Title:     00000109_LAST_WALTZ
Disc Size:      24,479,266,816 bytes
Protection:     AACS(v1)
BD-Java:        No
BDInfo:         0.5.8.1 (compatible layout created by DVDFab 9.3.1.2)

PLAYLIST REPORT:

Name:                   00005.MPLS  
Length:                 0:02:14.384 (h:m:s.ms)
Size:                   290,156,544 bytes
Total Bitrate:          17.27 Mbps

VIDEO:

Codec                   Bitrate             Description     
-----                   -------             -----------     
MPEG-2 Video            15798 kbps          1080p / 23.976 fps / 16:9 / 

AUDIO:

Codec                           Language        Bitrate         Description     
-----                           --------        -------         -----------     
Dolby Digital Audio             English         640 kbps        5.1 / 48 kHz / 640 kbps

FILES:

Name            Time In         Length          Size            Total Bitrate   
----            -------         ------          ----            -------------   
00006.M2TS      0:00:00.000     0:02:14.384     290,156,544     17,273 kbps     

CHAPTERS:

Number          Time In         Length          Avg Video Rate  Max 1-Sec Rate  Max 1-Sec Time  Max 5-Sec Rate  Max 5-Sec Time  Max 10Sec Rate  Max 10Sec Time  Avg Frame Size  Max Frame Size  Max Frame Time  
------          -------         ------          --------------  --------------  --------------  --------------  --------------  --------------  --------------  --------------  --------------  --------------  
1               0:00:00.000     0:02:14.384     15,802 kbps     32,319 kbps     0:01:47.190     24,989 kbps     0:00:25.233     22,243 kbps     0:00:20.228     82,338 bytes    501,254 bytes   0:01:05.440     

STREAM DIAGNOSTICS:

File            PID             Type            Codec           Language                Seconds                 Bitrate                 Bytes           Packets         
----            ---             ----            -----           --------                --------------          --------------          -------------   -----           
00006.M2TS      4113 (0x1011)   0x02            MPEG-2                                  134.34                  15798.1                 265,293,955     1,443,677       
00006.M2TS      4352 (0x1100)   0x81            AC3             eng (English)           134.37                  640                     10,752,000      63,000          

[/code]
<---- END FORUMS PASTE ---->

QUICK SUMMARY:

Disc Title: 00000109_LAST_WALTZ
Disc Size: 24,479,266,816 bytes
Protection: AACS(v1)
BD-Java: No
Playlist: 00005.MPLS  
Size: 290,156,544 bytes
Length: 0:02:14.384
Total Bitrate: 17.27 Mbps
Video: MPEG-2 Video / 15798 kbps / 1080p / 23.976 fps / 16:9 / 
Audio: English / Dolby Digital Audio / 5.1 / 48 kHz / 640 kbps


********************
PLAYLIST: 00001.MPLS  
********************

<--- BEGIN FORUMS PASTE --->
[code]
                                                                                                                  Total   Video                                             
Title                                                           Codec   Length   Movie Size      Disc Size       Bitrate Bitrate Main Audio Track                          Secondary Audio Track
-----                                                           ------  -------  --------------  --------------  ------- ------- ------------------                        ---------------------
00001.MPLS                                                      MPEG-2  0:01:45  330,135,552     24,479,266,816  25.13   24.04                                             
[/code]

[code]

DISC INFO:

Disc Title:     00000109_LAST_WALTZ
Disc Size:      24,479,266,816 bytes
Protection:     AACS(v1)
BD-Java:        No
BDInfo:         0.5.8.1 (compatible layout created by DVDFab 9.3.1.2)

PLAYLIST REPORT:

Name:                   00001.MPLS  
Length:                 0:01:45.105 (h:m:s.ms)
Size:                   330,135,552 bytes
Total Bitrate:          25.13 Mbps

VIDEO:

Codec                   Bitrate             Description     
-----                   -------             -----------     
MPEG-2 Video            24039 kbps          1080p / 23.976 fps / 16:9 / 

FILES:

Name            Time In         Length          Size            Total Bitrate   
----            -------         ------          ----            -------------   
00002.M2TS      0:00:00.000     0:01:45.105     330,135,552     25,128 kbps     

CHAPTERS:

Number          Time In         Length          Avg Video Rate  Max 1-Sec Rate  Max 1-Sec Time  Max 5-Sec Rate  Max 5-Sec Time  Max 10Sec Rate  Max 10Sec Time  Avg Frame Size  Max Frame Size  Max Frame Time  
------          -------         ------          --------------  --------------  --------------  --------------  --------------  --------------  --------------  --------------  --------------  --------------  
1               0:00:00.000     0:00:15.015     24,238 kbps     28,223 kbps     0:00:13.930     24,900 kbps     0:00:09.926     24,453 kbps     0:00:04.921     126,367 bytes   697,556 bytes   0:00:15.015     
2               0:00:15.015     0:00:15.015     23,702 kbps     24,561 kbps     0:00:14.973     24,122 kbps     0:00:15.140     24,060 kbps     0:00:15.140     123,571 bytes   697,556 bytes   0:00:15.515     
3               0:00:30.030     0:00:15.015     23,992 kbps     23,999 kbps     0:00:30.029     24,000 kbps     0:00:30.030     24,000 kbps     0:00:30.030     125,088 bytes   138,341 bytes   0:00:30.530     
4               0:00:45.045     0:00:15.015     24,000 kbps     24,000 kbps     0:00:59.059     24,000 kbps     0:00:55.055     24,000 kbps     0:00:50.050     125,125 bytes   125,129 bytes   0:01:00.060     
5               0:01:00.060     0:00:15.015     24,000 kbps     24,000 kbps     0:01:14.074     24,000 kbps     0:01:10.070     24,000 kbps     0:01:05.065     125,125 bytes   125,133 bytes   0:01:15.075     
6               0:01:15.075     0:00:15.015     24,068 kbps     25,027 kbps     0:01:29.089     24,205 kbps     0:01:25.085     24,102 kbps     0:01:20.080     125,482 bytes   253,660 bytes   0:01:30.090     
7               0:01:30.090     0:00:15.015     24,135 kbps     24,016 kbps     0:01:30.006     24,003 kbps     0:01:30.006     24,001 kbps     0:01:30.006     124,786 bytes   253,660 bytes   0:01:30.590     

STREAM DIAGNOSTICS:

File            PID             Type            Codec           Language                Seconds                 Bitrate                 Bytes           Packets         
----            ---             ----            -----           --------                --------------          --------------          -------------   -----           
00002.M2TS      4113 (0x1011)   0x02            MPEG-2                                  104.94                  24038.7                 315,321,487     1,715,908       

[/code]
<---- END FORUMS PASTE ---->

QUICK SUMMARY:

Disc Title: 00000109_LAST_WALTZ
Disc Size: 24,479,266,816 bytes
Protection: AACS(v1)
BD-Java: No
Playlist: 00001.MPLS  
Size: 330,135,552 bytes
Length: 0:01:45.105
Total Bitrate: 25.13 Mbps
Video: MPEG-2 Video / 24039 kbps / 1080p / 23.976 fps / 16:9 / 


********************
PLAYLIST: 00015.MPLS  
********************

<--- BEGIN FORUMS PASTE --->
[code]
                                                                                                                  Total   Video                                             
Title                                                           Codec   Length   Movie Size      Disc Size       Bitrate Bitrate Main Audio Track                          Secondary Audio Track
-----                                                           ------  -------  --------------  --------------  ------- ------- ------------------                        ---------------------
00015.MPLS                                                      MPEG-2  0:00:24  54,644,736      24,479,266,816  18.20   17.40                                             
[/code]

[code]

DISC INFO:

Disc Title:     00000109_LAST_WALTZ
Disc Size:      24,479,266,816 bytes
Protection:     AACS(v1)
BD-Java:        No
BDInfo:         0.5.8.1 (compatible layout created by DVDFab 9.3.1.2)

PLAYLIST REPORT:

Name:                   00015.MPLS  
Length:                 0:00:24.024 (h:m:s.ms)
Size:                   54,644,736 bytes
Total Bitrate:          18.20 Mbps

VIDEO:

Codec                   Bitrate             Description     
-----                   -------             -----------     
MPEG-2 Video            17403 kbps          1080i / 29.970 fps / 16:9 / 

FILES:

Name            Time In         Length          Size            Total Bitrate   
----            -------         ------          ----            -------------   
00016.M2TS      0:00:00.000     0:00:24.024     54,644,736      18,196 kbps     

CHAPTERS:

Number          Time In         Length          Avg Video Rate  Max 1-Sec Rate  Max 1-Sec Time  Max 5-Sec Rate  Max 5-Sec Time  Max 10Sec Rate  Max 10Sec Time  Avg Frame Size  Max Frame Size  Max Frame Time  
------          -------         ------          --------------  --------------  --------------  --------------  --------------  --------------  --------------  --------------  --------------  --------------  
1               0:00:00.000     0:00:24.024     17,427 kbps     30,201 kbps     0:00:00.200     19,040 kbps     0:00:00.283     18,443 kbps     0:00:09.209     90,544 bytes    393,077 bytes   0:00:02.168     

STREAM DIAGNOSTICS:

File            PID             Type            Codec           Language                Seconds                 Bitrate                 Bytes           Packets         
----            ---             ----            -----           --------                --------------          --------------          -------------   -----           
00016.M2TS      4113 (0x1011)   0x02            MPEG-2                                  23.97                   17403.4                 52,153,448      283,782         

[/code]
<---- END FORUMS PASTE ---->

QUICK SUMMARY:

Disc Title: 00000109_LAST_WALTZ
Disc Size: 24,479,266,816 bytes
Protection: AACS(v1)
BD-Java: No
Playlist: 00015.MPLS  
Size: 54,644,736 bytes
Length: 0:00:24.024
Total Bitrate: 18.20 Mbps
Video: MPEG-2 Video / 17403 kbps / 1080i / 29.970 fps / 16:9 / 


********************
PLAYLIST: 00016.MPLS  
********************

<--- BEGIN FORUMS PASTE --->
[code]
                                                                                                                  Total   Video                                             
Title                                                           Codec   Length   Movie Size      Disc Size       Bitrate Bitrate Main Audio Track                          Secondary Audio Track
-----                                                           ------  -------  --------------  --------------  ------- ------- ------------------                        ---------------------
00016.MPLS                                                      MPEG-2  0:00:24  45,152,256      24,479,266,816  15.04   14.37                                             
[/code]

[code]

DISC INFO:

Disc Title:     00000109_LAST_WALTZ
Disc Size:      24,479,266,816 bytes
Protection:     AACS(v1)
BD-Java:        No
BDInfo:         0.5.8.1 (compatible layout created by DVDFab 9.3.1.2)

PLAYLIST REPORT:

Name:                   00016.MPLS  
Length:                 0:00:24.024 (h:m:s.ms)
Size:                   45,152,256 bytes
Total Bitrate:          15.04 Mbps

VIDEO:

Codec                   Bitrate             Description     
-----                   -------             -----------     
MPEG-2 Video            14367 kbps          1080i / 29.970 fps / 16:9 / 

FILES:

Name            Time In         Length          Size            Total Bitrate   
----            -------         ------          ----            -------------   
00017.M2TS      0:00:00.000     0:00:24.024     45,152,256      15,035 kbps     

CHAPTERS:

Number          Time In         Length          Avg Video Rate  Max 1-Sec Rate  Max 1-Sec Time  Max 5-Sec Rate  Max 5-Sec Time  Max 10Sec Rate  Max 10Sec Time  Avg Frame Size  Max Frame Size  Max Frame Time  
------          -------         ------          --------------  --------------  --------------  --------------  --------------  --------------  --------------  --------------  --------------  --------------  
1               0:00:00.000     0:00:24.024     14,386 kbps     18,608 kbps     0:00:18.218     15,791 kbps     0:00:00.283     14,646 kbps     0:00:12.212     74,746 bytes    235,190 bytes   0:00:19.185     

STREAM DIAGNOSTICS:

File            PID             Type            Codec           Language                Seconds                 Bitrate                 Bytes           Packets         
----            ---             ----            -----           --------                --------------          --------------          -------------   -----           
00017.M2TS      4113 (0x1011)   0x02            MPEG-2                                  23.97                   14366.9                 43,053,876      234,342         

[/code]
<---- END FORUMS PASTE ---->

QUICK SUMMARY:

Disc Title: 00000109_LAST_WALTZ
Disc Size: 24,479,266,816 bytes
Protection: AACS(v1)
BD-Java: No
Playlist: 00016.MPLS  
Size: 45,152,256 bytes
Length: 0:00:24.024
Total Bitrate: 15.04 Mbps
Video: MPEG-2 Video / 14367 kbps / 1080i / 29.970 fps / 16:9 / 


********************
PLAYLIST: 00013.MPLS  
********************

<--- BEGIN FORUMS PASTE --->
[code]
                                                                                                                  Total   Video                                             
Title                                                           Codec   Length   Movie Size      Disc Size       Bitrate Bitrate Main Audio Track                          Secondary Audio Track
-----                                                           ------  -------  --------------  --------------  ------- ------- ------------------                        ---------------------
00013.MPLS                                                      MPEG-2  0:00:18  51,320,832      24,479,266,816  22.79   21.83                                             
[/code]

[code]

DISC INFO:

Disc Title:     00000109_LAST_WALTZ
Disc Size:      24,479,266,816 bytes
Protection:     AACS(v1)
BD-Java:        No
BDInfo:         0.5.8.1 (compatible layout created by DVDFab 9.3.1.2)

PLAYLIST REPORT:

Name:                   00013.MPLS  
Length:                 0:00:18.018 (h:m:s.ms)
Size:                   51,320,832 bytes
Total Bitrate:          22.79 Mbps

VIDEO:

Codec                   Bitrate             Description     
-----                   -------             -----------     
MPEG-2 Video            21826 kbps          1080i / 29.970 fps / 16:9 / 

FILES:

Name            Time In         Length          Size            Total Bitrate   
----            -------         ------          ----            -------------   
00014.M2TS      0:00:00.000     0:00:18.018     51,320,832      22,786 kbps     

CHAPTERS:

Number          Time In         Length          Avg Video Rate  Max 1-Sec Rate  Max 1-Sec Time  Max 5-Sec Rate  Max 5-Sec Time  Max 10Sec Rate  Max 10Sec Time  Avg Frame Size  Max Frame Size  Max Frame Time  
------          -------         ------          --------------  --------------  --------------  --------------  --------------  --------------  --------------  --------------  --------------  --------------  
1               0:00:00.000     0:00:18.018     21,866 kbps     32,162 kbps     0:00:00.700     25,507 kbps     0:00:00.283     23,809 kbps     0:00:00.200     113,474 bytes   567,090 bytes   0:00:13.179     

STREAM DIAGNOSTICS:

File            PID             Type            Codec           Language                Seconds                 Bitrate                 Bytes           Packets         
----            ---             ----            -----           --------                --------------          --------------          -------------   -----           
00014.M2TS      4113 (0x1011)   0x02            MPEG-2                                  17.97                   21826                   49,020,976      266,656         

[/code]
<---- END FORUMS PASTE ---->

QUICK SUMMARY:

Disc Title: 00000109_LAST_WALTZ
Disc Size: 24,479,266,816 bytes
Protection: AACS(v1)
BD-Java: No
Playlist: 00013.MPLS  
Size: 51,320,832 bytes
Length: 0:00:18.018
Total Bitrate: 22.79 Mbps
Video: MPEG-2 Video / 21826 kbps / 1080i / 29.970 fps / 16:9 / 


********************
PLAYLIST: 00014.MPLS  
********************

<--- BEGIN FORUMS PASTE --->
[code]
                                                                                                                  Total   Video                                             
Title                                                           Codec   Length   Movie Size      Disc Size       Bitrate Bitrate Main Audio Track                          Secondary Audio Track
-----                                                           ------  -------  --------------  --------------  ------- ------- ------------------                        ---------------------
00014.MPLS                                                      MPEG-2  0:00:18  35,260,416      24,479,266,816  15.66   14.97                                             
[/code]

[code]

DISC INFO:

Disc Title:     00000109_LAST_WALTZ
Disc Size:      24,479,266,816 bytes
Protection:     AACS(v1)
BD-Java:        No
BDInfo:         0.5.8.1 (compatible layout created by DVDFab 9.3.1.2)

PLAYLIST REPORT:

Name:                   00014.MPLS  
Length:                 0:00:18.018 (h:m:s.ms)
Size:                   35,260,416 bytes
Total Bitrate:          15.66 Mbps

VIDEO:

Codec                   Bitrate             Description     
-----                   -------             -----------     
MPEG-2 Video            14971 kbps          1080i / 29.970 fps / 16:9 / 

FILES:

Name            Time In         Length          Size            Total Bitrate   
----            -------         ------          ----            -------------   
00015.M2TS      0:00:00.000     0:00:18.018     35,260,416      15,655 kbps     

CHAPTERS:

Number          Time In         Length          Avg Video Rate  Max 1-Sec Rate  Max 1-Sec Time  Max 5-Sec Rate  Max 5-Sec Time  Max 10Sec Rate  Max 10Sec Time  Avg Frame Size  Max Frame Size  Max Frame Time  
------          -------         ------          --------------  --------------  --------------  --------------  --------------  --------------  --------------  --------------  --------------  --------------  
1               0:00:00.000     0:00:18.018     14,999 kbps     19,854 kbps     0:00:12.212     16,288 kbps     0:00:12.262     15,336 kbps     0:00:06.206     77,836 bytes    249,780 bytes   0:00:07.173     

STREAM DIAGNOSTICS:

File            PID             Type            Codec           Language                Seconds                 Bitrate                 Bytes           Packets         
----            ---             ----            -----           --------                --------------          --------------          -------------   -----           
00015.M2TS      4113 (0x1011)   0x02            MPEG-2                                  17.97                   14971.3                 33,625,372      183,012         

[/code]
<---- END FORUMS PASTE ---->

QUICK SUMMARY:

Disc Title: 00000109_LAST_WALTZ
Disc Size: 24,479,266,816 bytes
Protection: AACS(v1)
BD-Java: No
Playlist: 00014.MPLS  
Size: 35,260,416 bytes
Length: 0:00:18.018
Total Bitrate: 15.66 Mbps
Video: MPEG-2 Video / 14971 kbps / 1080i / 29.970 fps / 16:9 / 


********************
PLAYLIST: 00011.MPLS  
********************

<--- BEGIN FORUMS PASTE --->
[code]
                                                                                                                  Total   Video                                             
Title                                                      


Create a new paste based on this one


Comments: