[ create a new paste ] login | about

Link: http://codepad.org/mm7gyXht    [ raw code | fork ]

Plain Text, pasted on Jun 4:
foobar2000 1.4.4 / Dynamic Range Meter 1.1.1
log date: 2019-06-04 11:15:54

--------------------------------------------------------------------------------
Analyzed: THE O'JAYS / SHIP AHOY
--------------------------------------------------------------------------------

DR         Peak         RMS     Duration Track
--------------------------------------------------------------------------------
DR12      -0.25 dB   -16.22 dB      4:22 01-Put Your Hands Together
DR11      -0.86 dB   -15.37 dB      9:50 02-Ship Ahoy
DR13      -0.55 dB   -16.29 dB      4:00 03-This Air I Breathe
DR13      -0.26 dB   -16.63 dB      5:47 04-You Got Your Hooks In Me
DR13      -0.30 dB   -15.69 dB      7:29 05-For The Love Of Money
DR13      -0.01 dB   -16.79 dB      4:47 06-Now That We Found Love
DR14      -0.12 dB   -18.66 dB      9:04 07-Don't Call Me Brother
DR14      -0.35 dB   -17.24 dB      4:05 08-People Keep Tellin' Me
--------------------------------------------------------------------------------

Number of tracks:  8
Official DR value: DR13

Samplerate:        88200 Hz
Channels:          6
Bits per sample:   24
Bitrate:           7328 kbps
Codec:             FLAC
================================================================================




Create a new paste based on this one


Comments: