[ create a new paste ] login | about

Link: http://codepad.org/moIKergL    [ raw code | fork ]

Plain Text, pasted on Jan 25:
[CUETools log; Date: 1/25/2016 3:44:12 PM; Version: 2.1.5]
HDCD: peak extend: none, transient filter: some, gain: none
[CTDB TOCID: gewe_2jigliysCuXJjoIzV8biNU-] found.
Track | CTDB Status
  1   | (7/7) Accurately ripped
  2   | (7/7) Accurately ripped
  3   | (7/7) Accurately ripped
  4   | (7/7) Accurately ripped
  5   | (7/7) Accurately ripped
  6   | (7/7) Accurately ripped
  7   | (7/7) Accurately ripped
  8   | (7/7) Accurately ripped
[AccurateRip ID: 000bef56-004e8398-7208bc08] found.
Track   [  CRC   |   V2   ] Status
 01     [e0dcc9e3|a30047b0] (34+21/55) Accurately ripped
 02     [1e1b09fc|6740b7dd] (35+21/56) Accurately ripped
 03     [c3cce9d4|47a0eade] (35+21/56) Accurately ripped
 04     [55898ce9|6e37db7b] (35+20/55) Accurately ripped
 05     [dbf60716|7c3475eb] (35+21/56) Accurately ripped
 06     [70bdc5b0|0145a6b4] (35+21/56) Accurately ripped
 07     [9de2bdf7|705bf51d] (35+21/56) Accurately ripped
 08     [4536bc48|d32e2dae] (36+21/57) Accurately ripped

Track Peak [ CRC32  ] [W/O NULL] [  LOG   ]
 --   99.9 [A97D4216] [2A2A2F25]   CRC32   
 01   97.9 [521D5295] [B00405A6]           
 02   97.4 [BFBBC4D6] [23329756]           
 03   83.7 [5C977DCC] [13AA802D]           
 04   95.9 [CCC26017] [8C40C227]           
 05   98.0 [EBE1D299] [D944D35C]           
 06   99.9 [C731FADB] [31123F0F]           
 07   91.0 [EC980337] [0A8306BC]           
 08   91.3 [4E3C514F] [88FD7D53]           



Create a new paste based on this one


Comments: