[ create a new paste ] login | about

Link: http://codepad.org/mpsnq2H4    [ raw code | fork ]

Plain Text, pasted on Nov 28:
Exact Audio Copy V0.99 prebeta 5 from 4. May 2009

Отчёт EAC об извлечении, выполненном 17. января 2011, 20:16

Glenn Milller / The Golden Years of Glenn Miller (CD1)

Дисковод: Optiarc DVD RW AD-7201A   Adapter: 0  ID: 0

Режим чтения                 : Достоверность
Использование точного потока : Да
Отключение кэша аудио        : Да
Использование указателей C2  : Нет

Коррекция смещения при чтении                     : 48
Способность читать области Lead-in и Lead-out     : Нет
Заполнение пропущенных сэмплов тишиной            : Да
Удаление блоков с тишиной в начале и конце        : Нет
При вычислениях CRC использовались нулевые сэмплы : Да
Интерфейс                                         : Установленный внешний ASPI-интерфейс

Выходной формат : Внутренние WAV-операции
Формат сэмплов  : 44.100 Гц; 16 бит; стерео


TOC извлечённого CD

     Трек |   Старт  | Длительность | Начальный сектор | Конечный сектор 
    ---------------------------------------------------------------------
       1  |  0:00.00 |    3:27.05   |           0      |      15529      
       2  |  3:27.05 |    3:29.65   |       15530      |      31269      
       3  |  6:56.70 |    3:29.69   |       31270      |      47013      
       4  | 10:26.64 |    2:54.04   |       47014      |      60067      
       5  | 13:20.68 |    3:08.23   |       60068      |      74190      
       6  | 16:29.16 |    3:15.29   |       74191      |      88844      
       7  | 19:44.45 |    2:55.25   |       88845      |     101994      
       8  | 22:39.70 |    3:17.12   |      101995      |     116781      
       9  | 25:57.07 |    2:55.10   |      116782      |     129916      
      10  | 28:52.17 |    3:45.31   |      129917      |     146822      
      11  | 32:37.48 |    3:06.52   |      146823      |     160824      
      12  | 35:44.25 |    2:53.19   |      160825      |     173818      
      13  | 38:37.44 |    3:26.12   |      173819      |     189280      
      14  | 42:03.56 |    2:56.68   |      189281      |     202548      
      15  | 45:00.49 |    2:18.13   |      202549      |     212911      
      16  | 47:18.62 |    3:15.32   |      212912      |     227568      
      17  | 50:34.19 |    3:22.28   |      227569      |     242746      
      18  | 53:56.47 |    2:31.18   |      242747      |     254089      
      19  | 56:27.65 |    3:36.17   |      254090      |     270306      
      20  | 60:04.07 |    3:15.45   |      270307      |     284976      


Характеристики диапазона извлечения и сообщения об ошибках

Выбранный диапазон

     Имя файла C:\Documents and Settings\All Users\Документы\Моя музыка\Glenn Milller - The Golden Years of Glenn Miller (3CD)\Glenn Milller - The Golden Years of Glenn Miller (CD1).wav

     Пиковый уровень 96.1 %
     Качество диапазона 100.0 %
     CRC теста 55F776B7
     CRC копии 55F776B7
     Копирование... OK

Ошибок не произошло

 
AccurateRip: сводка
 
Трек  1  точность не определена (достоверность 2)  [63579273], AccurateRip вернул [7E17DCD3]
Трек  2  точность не определена (достоверность 2)  [3B186AA7], AccurateRip вернул [322F89AF]
Трек  3  точность не определена (достоверность 2)  [66C5BC9C], AccurateRip вернул [D116865C]
Трек  4  точность не определена (достоверность 2)  [09B9DA4E], AccurateRip вернул [38215E14]
Трек  5  точность не определена (достоверность 2)  [C41F02ED], AccurateRip вернул [D9418023]
Трек  6  точность не определена (достоверность 2)  [E52F6FE3], AccurateRip вернул [7B8C6E33]
Трек  7  точность не определена (достоверность 2)  [38702105], AccurateRip вернул [FBA95E41]
Трек  8  точность не определена (достоверность 2)  [44ECAE27], AccurateRip вернул [9504EE29]
Трек  9  точность не определена (достоверность 2)  [CF6A96A9], AccurateRip вернул [69DA31DF]
Трек 10  точность не определена (достоверность 2)  [F7608310], AccurateRip вернул [246EA2F4]
Трек 11  точность не определена (достоверность 2)  [9F031DF1], AccurateRip вернул [0F475739]
Трек 12  точность не определена (достоверность 2)  [A55D5857], AccurateRip вернул [359F1145]
Трек 13  точность не определена (достоверность 2)  [E7DFCAE0], AccurateRip вернул [1B1B9334]
Трек 14  точность не определена (достоверность 2)  [1F198F27], AccurateRip вернул [762DA915]
Трек 15  точность не определена (достоверность 2)  [1B0F15F8], AccurateRip вернул [E9A12744]
Трек 16  точность не определена (достоверность 2)  [46051711], AccurateRip вернул [BE3C66C3]
Трек 17  точность не определена (достоверность 2)  [ED8DC722], AccurateRip вернул [54E6414A]
Трек 18  точность не определена (достоверность 2)  [B5548E28], AccurateRip вернул [6AEE448A]
Трек 19  точность не определена (достоверность 2)  [7215F87D], AccurateRip вернул [58DC9981]
Трек 20  точность не определена (достоверность 2)  [58315D45], AccurateRip вернул [74711221]
 
Ни один трек не прошёл проверки на точность
В вашей базе может быть иной вариант штамповки диска

Конец отчёта



Create a new paste based on this one


Comments: