[ create a new paste ] login | about

Link: http://codepad.org/mqp6rE65    [ raw code | fork ]

Plain Text, pasted on Feb 15:
[CUETools log; Date: 9/2/2015 6:53:08 AM; Version: 2.1.5]
[CTDB TOCID: fyHrYHSrSB_1ThQybQBxYtlzuVA-] found.
Track | CTDB Status
  1   | (9/9) Accurately ripped
  2   | (9/9) Accurately ripped
  3   | (9/9) Accurately ripped
  4   | (9/9) Accurately ripped
  5   | (9/9) Accurately ripped
  6   | (9/9) Accurately ripped
  7   | (9/9) Accurately ripped
  8   | (9/9) Accurately ripped
  9   | (9/9) Accurately ripped
 10   | (9/9) Accurately ripped
 11   | (9/9) Accurately ripped
[AccurateRip ID: 0015daa7-00bcc4d6-9a0c4a0b] found.
Track   [  CRC   |   V2   ] Status
 01     [3d8005b7|14a26e1f] (00+22/22) Accurately ripped
 02     [62399120|1c13bfec] (00+22/22) Accurately ripped
 03     [a3fba0a9|91c276f7] (00+22/22) Accurately ripped
 04     [c907974d|e550b0bf] (00+22/22) Accurately ripped
 05     [aa8281f6|895a8246] (00+22/22) Accurately ripped
 06     [2dafbfaa|93c48cd2] (00+22/22) Accurately ripped
 07     [d5d9d61d|f638b49e] (00+22/22) Accurately ripped
 08     [2b88e250|bdd754de] (00+22/22) Accurately ripped
 09     [c073bb68|f26557f2] (00+22/22) Accurately ripped
 10     [b0a33057|6294054d] (00+22/22) Accurately ripped
 11     [8c304925|9bcdabb8] (00+22/22) Accurately ripped

Track Peak [ CRC32  ] [W/O NULL] [  LOG   ]
 --  100.0 [479D2360] [6D1944F8]   CRC32   
 01   92.4 [46B538CA] [F2992CC7]           
 02  100.0 [05152B5A] [F5C95654]           
 03   90.4 [63113616] [EAA64BFD]           
 04  100.0 [9CD52664] [EEDEE797]           
 05   82.2 [EF9AA837] [571F5787]           
 06  100.0 [05E26385] [835B1B1D]           
 07  100.0 [0088887D] [21E3B3BD]           
 08   95.5 [BD00ADAF] [98856A1B]           
 09   99.4 [8CD1309D] [D685BE92]           
 10  100.0 [C63237C7] [824EBF71]           
 11   97.3 [B13997D4] [BBD867FD]           



Create a new paste based on this one


Comments: