[ create a new paste ] login | about

Link: http://codepad.org/msrPPkPn    [ raw code | fork ]

Plain Text, pasted on Aug 31:
foobar2000 1.5 / Dynamic Range Meter 1.1.1
log date: 2020-08-31 19:50:13

--------------------------------------------------------------------------------
Analyzed: Marvin Gaye / Let's Get It On
--------------------------------------------------------------------------------

DR         Peak         RMS     Duration Track
--------------------------------------------------------------------------------
DR14      -0.27 dB   -19.57 dB      4:54 01-Let's Get It On
DR13      -0.12 dB   -18.30 dB      3:30 02-Please Stay (Once You Go Away)
DR14      -0.01 dB   -19.81 dB      4:02 03-If I Should Die Tonight
DR13      -1.09 dB   -18.55 dB      3:14 04-Keep Gettin' It On
DR13      -2.18 dB   -19.68 dB      2:43 05-Come Get To This
DR14      -0.48 dB   -20.13 dB      4:17 06-Distant Lover
DR14      -0.33 dB   -19.74 dB      4:45 07-You Sure Love To Ball
DR13      -1.57 dB   -22.80 dB      4:25 08-Just To Keep You Satisfied
--------------------------------------------------------------------------------

Number of tracks:  8
Official DR value: DR13

Samplerate:        88200 Hz
Channels:          5
Bits per sample:   24
Bitrate:           6189 kbps
Codec:             FLAC
================================================================================




Create a new paste based on this one


Comments: