[ create a new paste ] login | about

Link: http://codepad.org/mtdVQ6QG    [ raw code | fork ]

Plain Text, pasted on Jul 5:
foobar2000 1.1.18 / Dynamic Range Meter 1.1.1
log date: 2012-12-15 12:03:35

--------------------------------------------------------------------------------
Analyzed: Bram Beekman / Pentatone Super Audio CD Sampler (1-2)
          Ed Spanjaard, Concertgebouw Chamber Orchestra & Netherlands Chamber Choir / Pentatone Super Audio CD Sampler (3)
          Hartmut Haenchen & Netherlands Philarmonic Orchestra / Pentatone Super Audio CD Sampler (4)
          Keisuke Wakao & Friends Of The Boston Symphony Orchestra / Pentatone Super Audio CD Sampler (5)
          Kent Nagano & Russian National Orchestra / Pentatone Super Audio CD Sampler (6)
          Marco Boni & Concertbouw Chamber Orchestra / Pentatone Super Audio CD Sampler (7-9)
          Mari Kodama / Pentatone Super Audio CD Sampler (10)
          Miranda Van Kralingen / Pentatone Super Audio CD Sampler (11)
          Simon Murphy & New Dutch Academy / Pentatone Super Audio CD Sampler (12)
          St. Petersburg Chamber Choir & Nikolai Korniev / Pentatone Super Audio CD Sampler (13-14)
          Yakov Kreizberg & Netherlands Philarmonic Orchestra / Pentatone Super Audio CD Sampler (15)
--------------------------------------------------------------------------------

DR         Peak         RMS     Duration Track
--------------------------------------------------------------------------------
DR12      -3.74 dB   -20.74 dB      2:48 06-Toccata Et Fuga In D Minor Bwv 565 - Toccata 
DR13      -4.62 dB   -22.42 dB      7:01 07-Toccata Et Fuga In D Minor Bwv 565 - Fuga
DR13      -0.97 dB   -18.53 dB      3:53 13-Hallelujah (From Messiah)
DR13     -15.84 dB   -35.63 dB      9:01 05-Symphony No. 5 In C Sharp Minor - Movement 4: Adagietto (Sehr Langsam)
DR13      -6.73 dB   -23.08 dB      4:30 09-Quartet In F, K 370 (368b) For Oboe, Violin, Viola And Cello - III. Rondeau - Allegro
DR13      -0.06 dB   -19.15 dB      7:01 15-Piano Concerto No.1 In B Flat Minor, Op.23 - Allegro Con Fuoco
DR14      -4.58 dB   -23.41 dB      8:05 01-Serenade In G Kv 525 - "Eine Kleine Nachtmusik" - Allegro 
DR15      -2.79 dB   -23.67 dB      4:51 03-Violin Concerto In D Minor - Allegro
DR12      -4.51 dB   -21.78 dB      3:56 12-Serenade For String Orchestra In C  Op. 48 - Waltz - Moderato
DR14      -2.07 dB   -20.94 dB      5:16 02-Piano Sonata No.23 In F Minor, "Appassionata" - Allegro Ma Non Troppo
DR12      -8.68 dB   -25.43 dB      4:48 08-Ave Maria D. 839
DR12      -7.33 dB   -24.49 dB      3:18 14-Sinfonia A Quatro In B Flat - Andante
DR15      -0.89 dB   -24.41 dB      2:27 10-Vespers, Op.37 - Bogoroditse Devo
DR13      -7.93 dB   -29.32 dB      2:34 11-Vespers, Op.37 - Slava V Vyshnikh Bogu
DR15      -1.52 dB   -23.23 dB      5:20 04-Orchestral Music From "Notre Dame" - Carnival Music
--------------------------------------------------------------------------------

Number of tracks:  15
Official DR value: DR13

Samplerate:        88200 Hz
Channels:          2
Bits per sample:   24
Bitrate:           2459 kbps
Codec:             FLAC
================================================================================




Create a new paste based on this one


Comments: