[ create a new paste ] login | about

Link: http://codepad.org/muKlVxco    [ raw code | fork ]

Plain Text, pasted on Mar 18:
foobar2000 1.4.8 / Dynamic Range Meter 1.1.1
log date: 2020-03-07 21:33:49

--------------------------------------------------------------------------------
Analyzed: Grateful Dead / From The Mars Hotel (2019 MFSL Hybrid SACD)
--------------------------------------------------------------------------------

DR         Peak         RMS     Duration Track
--------------------------------------------------------------------------------
DR11      -0.63 dB   -13.56 dB      4:43 01-U.S. Blues
DR13      -0.62 dB   -16.53 dB      4:11 02-China Doll
DR11      -0.58 dB   -14.89 dB      6:46 03-Unbroken Chain
DR11      -0.52 dB   -12.93 dB      3:24 04-Loose Lucy
DR11      -0.36 dB   -13.53 dB      4:19 05-Scarlet Begonias
DR12      -0.78 dB   -13.93 dB      4:18 06-Pride of Cucamonga
DR10      -0.78 dB   -13.29 dB      4:24 07-Money Money
DR12      -0.34 dB   -15.50 dB      5:30 08-Ship of Fools
--------------------------------------------------------------------------------

Number of tracks:  8
Official DR value: DR11

Samplerate:        88200 Hz
Channels:          2
Bits per sample:   24
Bitrate:           2575 kbps
Codec:             FLAC
================================================================================




Create a new paste based on this one


Comments: