[ create a new paste ] login | about

Link: http://codepad.org/mvehWzes    [ raw code | fork ]

Plain Text, pasted on Aug 25:
Disc 1
->
foobar2000 1.2.2 / Dynamic Range Meter 1.1.1
log date: 2013-05-29 14:31:13

--------------------------------------------------------------------------------
Analyzed: Kraftwerk / Minimum-Maximum (International Version - Hybrid SACD - Disc 1)
--------------------------------------------------------------------------------

DR         Peak         RMS     Duration Track
--------------------------------------------------------------------------------
DR13      -0.01 dB   -17.28 dB      7:55 01-The Man Machine
DR11      -1.36 dB   -16.01 dB      4:46 02-Planet Of Visions
DR12      -1.38 dB   -16.54 dB      4:22 03-Tour De France Etape One
DR13      -1.04 dB   -18.32 dB      1:29 04-Chrono
DR12      -1.36 dB   -16.52 dB      4:49 05-Tour De France Etape Two
DR11      -1.38 dB   -16.06 dB      6:42 06-Vitamin
DR12      -1.37 dB   -15.85 dB      6:18 07-Tour De France
DR13      -1.34 dB   -17.51 dB      8:52 08-Autobahn
DR12      -1.35 dB   -15.35 dB      3:42 09-The Model
DR13      -1.31 dB   -16.89 dB      5:59 10-Neon Lights
--------------------------------------------------------------------------------

Number of tracks:  10
Official DR value: DR12

Samplerate:        88200 Hz
Channels:          6
Bits per sample:   24
Bitrate:           6950 kbps
Codec:             FLAC
================================================================================
->
*********************************************************************************************************************************************************
*********************************************************************************************************************************************************
->
Disc 2
->
foobar2000 1.2.2 / Dynamic Range Meter 1.1.1
log date: 2013-05-29 14:39:10

--------------------------------------------------------------------------------
Analyzed: Kraftwerk / Minimum-Maximum (International Version - Hybrid SACD - Disc 2)
--------------------------------------------------------------------------------

DR         Peak         RMS     Duration Track
--------------------------------------------------------------------------------
DR13      -1.43 dB   -17.03 dB      7:42 01-Radioactivity
DR14      -1.23 dB   -17.91 dB      5:02 02-Trans Europe Express
DR14      -0.79 dB   -18.32 dB      4:29 03-Metal On Metal
DR12      -1.38 dB   -17.49 dB      4:28 04-Numbers
DR13      -1.47 dB   -16.35 dB      2:56 05-Computer World
DR11      -1.04 dB   -16.73 dB      5:55 06-Home Computer
DR12      -1.46 dB   -16.76 dB      2:57 07-Pocket Calculator
DR13      -1.45 dB   -15.93 dB      3:16 08-Dentaku
DR13      -0.64 dB   -17.39 dB      7:24 09-The Robots
DR14      -1.45 dB   -16.66 dB      4:41 10-Elektro Kardiogramm
DR13      -1.19 dB   -16.73 dB      7:14 11-Aero Dynamik
DR15      -0.01 dB   -17.72 dB      9:52 12-Music Non Stop
--------------------------------------------------------------------------------

Number of tracks:  12
Official DR value: DR13

Samplerate:        88200 Hz
Channels:          6
Bits per sample:   24
Bitrate:           7005 kbps
Codec:             FLAC
================================================================================




Create a new paste based on this one


Comments: