[ create a new paste ] login | about

Link: http://codepad.org/mwDLpXf2    [ raw code | fork ]

Plain Text, pasted on Nov 19:
foobar2000 1.4.6 / Dynamic Range Meter 1.1.1
log date: 2019-11-19 09:16:54

--------------------------------------------------------------------------------
Statistics for: 22-I Am Troubled (2019 Remaster)
Number of samples: 1883005
Duration: 0:39 
--------------------------------------------------------------------------------

                 Left              Right

Peak Value:    -13.72 dB   ---    -13.71 dB   
Avg RMS:       -26.49 dB   ---    -26.80 dB   
DR channel:      9.55 dB   ---     10.26 dB   
--------------------------------------------------------------------------------

Official DR Value: DR10

Samplerate:        48000 Hz
Channels:          2
Bits per sample:   24
Bitrate:           1297 kbps
Codec:             FLAC
================================================================================
--------------------------------------------------------------------------------
Analyzed: The Doors / The Soft Parade (50th Anniversary Deluxe Edition)
--------------------------------------------------------------------------------

DR         Peak         RMS     Duration Track
--------------------------------------------------------------------------------
DR13      -0.41 dB   -16.15 dB      3:23 11-Tell All the People (Doors Only Mix)
DR12      -0.41 dB   -14.76 dB      3:13 12-Touch Me (Doors Only Mix) (Robby Krieger Overdub)
DR13      -0.78 dB   -16.24 dB      2:29 13-Runnin' Blue (Doors Only Mix) (Robby Krieger Overdub)
DR14      -0.03 dB   -16.61 dB      2:58 14-Wishful Sinful (Doors Only Mix) (Robby Krieger Overdub)
DR13      -1.06 dB   -16.68 dB      3:19 15-Who Scared You (Doors Only Mix)
DR12      -0.35 dB   -14.57 dB      3:14 19-Touch Me (Doors Only Mix)
DR13      -1.74 dB   -17.30 dB      2:30 20-Runnin' Blue (Doors Only Mix)
DR13       0.00 dB   -15.36 dB      2:58 21-Wishful Sinful (Doors Only Mix)
--------------------------------------------------------------------------------

Number of tracks:  8
Official DR value: DR13

Samplerate:        96000 Hz
Channels:          2
Bits per sample:   24
Bitrate:           2610 kbps
Codec:             FLAC
================================================================================

--------------------------------------------------------------------------------
Analyzed: The Doors / The Soft Parade (50th Anniversary Deluxe Edition)
--------------------------------------------------------------------------------

DR         Peak         RMS     Duration Track
--------------------------------------------------------------------------------
DR11      -3.80 dB   -17.78 dB      3:21 01-Tell All The People (2019 Remaster)
DR12      -1.20 dB   -17.55 dB      3:12 02-Touch Me (2019 Remaster)
DR14      -2.43 dB   -18.78 dB      4:48 03-Shaman's Blues (2019 Remaster)
DR12      -3.94 dB   -17.57 dB      3:09 04-Do It (2019 Remaster)
DR10      -3.19 dB   -16.85 dB      2:39 05-Easy Ride (2019 Remaster)
DR14      -2.61 dB   -19.07 dB      2:35 06-Wild Child (2019 Remaster)
DR14      -0.25 dB   -17.38 dB      2:28 07-Runnin' Blue (2019 Remaster)
DR12      -2.27 dB   -17.50 dB      2:58 08-Wishful Sinful (2019 Remaster)
DR12      -2.79 dB   -18.70 dB      8:40 09-The Soft Parade (2019 Remaster)
DR14       0.00 dB   -17.14 dB      5:29 16-Roadhouse Blues (Screamin' Ray Daniels a.k.a. Ray Manzarek On Vocals)
DR14      -0.78 dB   -18.68 dB      4:30 17-(You Need Meat) Don't Go No Further [Screamin' Ray Daniels a.k.a. Ray Manzarek On Vocals]
DR13      -0.31 dB   -17.88 dB      3:57 18-I'm Your Doctor (Screamin' Ray Daniels a.k.a. Ray Manzarek On Vocals)
DR14      -1.86 dB   -21.67 dB      2:19 23-Seminary School (a.k.a. Petition the Lord with Prayer)
DR13      -0.50 dB   -17.01 dB   1:04:04 24-Rock Is Dead (Complete Version)
DR14      -2.27 dB   -20.27 dB      3:06 25-Chaos
--------------------------------------------------------------------------------

Number of tracks:  15
Official DR value: DR13

Samplerate:        192000 Hz
Channels:          2
Bits per sample:   24
Bitrate:           5596 kbps
Codec:             FLAC
================================================================================


foobar2000 1.4.6 / Dynamic Range Meter 1.1.1
log date: 2019-11-19 09:16:54

--------------------------------------------------------------------------------
Statistics for: 10-Who Scared You (2019 Remaster)
Number of samples: 10403373
Duration: 3:56 
--------------------------------------------------------------------------------

                 Left              Right

Peak Value:     -0.35 dB   ---     -1.10 dB   
Avg RMS:       -15.53 dB   ---    -16.28 dB   
DR channel:     12.71 dB   ---     12.75 dB   
--------------------------------------------------------------------------------

Official DR Value: DR13

Samplerate:        44100 Hz
Channels:          2
Bits per sample:   24
Bitrate:           1533 kbps
Codec:             FLAC
================================================================================




Create a new paste based on this one


Comments: