[ create a new paste ] login | about

Link: http://codepad.org/mwXLNsbK    [ raw code | fork ]

Plain Text, pasted on Nov 26:
foobar2000 1.3.16 / Dynamic Range Meter 1.1.1
log date: 2017-11-26 09:46:53

--------------------------------------------------------------------------------
Analyzed: Noel Gallagher's High Flying Birds / Who Built The Moon?
--------------------------------------------------------------------------------

DR         Peak         RMS     Duration Track
--------------------------------------------------------------------------------
DR6        0.00 dB    -7.04 dB      3:58 01-Fort Knox
DR5        0.00 dB    -5.49 dB      3:55 02-Holy Mountain
DR5        0.00 dB    -6.44 dB      3:25 03-Keep On Reaching
DR5        0.00 dB    -6.78 dB      5:17 04-It’s A Beautiful World
DR5        0.00 dB    -5.86 dB      5:02 05-She Taught Me How To Fly
DR5        0.00 dB    -6.60 dB      5:40 06-Be Careful What You Wish For
DR5        0.00 dB    -5.70 dB      3:42 07-Black & White Sunshine
DR6        0.00 dB    -8.09 dB      2:10 08-Interlude (Wednesday Part 1)
DR5        0.00 dB    -6.81 dB      3:25 09-If Love Is The Law
DR5        0.00 dB    -6.25 dB      4:28 10-The Man Who Built The Moon
DR5        0.00 dB    -8.09 dB      2:27 11-End Credits (Wednesday Part 2)
DR7        0.00 dB   -10.66 dB      5:22 12-Dead In The Water (Live At RTÉ 2FM Studios, Dublin)
--------------------------------------------------------------------------------

Number of tracks:  12
Official DR value: DR5

Samplerate:        44100 Hz
Channels:          2
Bits per sample:   16
Bitrate:           749 kbps
Codec:             FLAC
================================================================================




Create a new paste based on this one


Comments: