[ create a new paste ] login | about

Link: http://codepad.org/n0ui2U58    [ raw code | fork ]

Plain Text, pasted on Apr 27:
[CUETools log; Date: 4/27/2017 11:25:16 AM; Version: 2.1.5]
[CTDB TOCID: uaIGfdUtWVIWiAHaknJNOr9UfrY-] found.
Track | CTDB Status
  1   | (25/25) Accurately ripped
  2   | (25/25) Accurately ripped
  3   | (25/25) Accurately ripped
  4   | (25/25) Accurately ripped
  5   | (25/25) Accurately ripped
  6   | (25/25) Accurately ripped
  7   | (25/25) Accurately ripped
  8   | (25/25) Accurately ripped
  9   | (25/25) Accurately ripped
 10   | (25/25) Accurately ripped
 11   | (25/25) Accurately ripped
 12   | (25/25) Accurately ripped
[AccurateRip ID: 000be08d-006ee3d7-a506310c] found.
Track   [  CRC   |   V2   ] Status
 01     [e341cbcd|a79f8049] (00+29/29) Accurately ripped
 02     [df822262|7d9836a4] (00+29/29) Accurately ripped
 03     [bd708bc9|e9a4393c] (00+29/29) Accurately ripped
 04     [756caaa5|cd7d3bfc] (00+29/29) Accurately ripped
 05     [05d9f026|9ae600a8] (00+29/29) Accurately ripped
 06     [04a7b32b|0d151956] (00+29/29) Accurately ripped
 07     [533b3090|8f317870] (00+29/29) Accurately ripped
 08     [9b7c2fb8|3c096e1c] (00+29/29) Accurately ripped
 09     [fb4b27a2|84b0d645] (00+29/29) Accurately ripped
 10     [45d01ff2|e095baf3] (00+29/29) Accurately ripped
 11     [f2809a43|3632168e] (00+29/29) Accurately ripped
 12     [d45b9283|99ab1743] (00+29/29) Accurately ripped

Track Peak [ CRC32  ] [W/O NULL] [  LOG   ]
 --  100.0 [E572F1EF] [6C85F52C]   CRC32   
 01   97.9 [6D812EF7] [84C1140F]           
 02  100.0 [81E3A1D6] [D35C86E0]           
 03   95.9 [D0444F59] [F7A18035]           
 04   98.3 [156CC96C] [C97D1975]           
 05   98.1 [FB4DC1A6] [C499D1A6]           
 06   97.8 [CFBC081D] [3C9BA889]           
 07   98.1 [C7905DE0] [A2318967]           
 08   97.5 [BF71991B] [1AA2B7F5]           
 09   95.6 [86B5D46B] [1F13B17F]           
 10   95.6 [C3BFF2FD] [B6085104]           
 11   96.6 [1425771C] [43830E23]           
 12   97.6 [9416A195] [8FDC441C]           



Create a new paste based on this one


Comments: