[ create a new paste ] login | about

Link: http://codepad.org/n37hk5qm    [ raw code | fork ]

Plain Text, pasted on Jan 14:
foobar2000 1.5 / Dynamic Range Meter 1.1.1
log date: 2020-01-14 21:45:58

--------------------------------------------------------------------------------
Analyzed: Gentle Giant / Unburied Treasure: Gentle Giant Gentle Giant (Steven Wilson Stereo Remix)
--------------------------------------------------------------------------------

DR         Peak         RMS     Duration Track
--------------------------------------------------------------------------------
DR9       -0.10 dB   -12.53 dB      6:25 01-Giant
DR12      -0.10 dB   -16.35 dB      4:28 02-Funny Ways
DR11      -0.10 dB   -14.44 dB      6:01 03-Alucard
DR12      -0.10 dB   -14.82 dB      3:47 04-Isn't It Quiet And Cold?
DR11      -0.30 dB   -15.46 dB      9:04 05-Nothing At All
DR10      -0.10 dB   -11.77 dB      5:28 06-Why Not?
DR9       -0.10 dB   -12.80 dB      1:47 07-The Queen
--------------------------------------------------------------------------------

Number of tracks:  7
Official DR value: DR11

Samplerate:        96000 Hz
Channels:          2
Bits per sample:   24
Bitrate:           2538 kbps
Codec:             FLAC
================================================================================




Create a new paste based on this one


Comments: