[ create a new paste ] login | about

Link: http://codepad.org/n8a3f66v    [ raw code | fork ]

Plain Text, pasted on Dec 15:
CD1
:::

Exact Audio Copy V0.99 prebeta 4 from 23. January 2008

Отчёт EAC об извлечении, выполненном 24. августа 2008, 12:34

Rick Wakeman / Rick Wakeman's Greatest Hits (Disk 1 of 2)

Дисковод: PIONEER DVD-RW  DVR-108   Adapter: 4  ID: 1

Режим чтения                 : Достоверность
Использование точного потока : Да
Отключение кэша аудио        : Да
Использование указателей C2  : Нет

Коррекция смещения при чтении                     : 48
Способность читать области Lead-in и Lead-out     : Нет
Заполнение пропущенных сэмплов тишиной            : Да
Удаление блоков с тишиной в начале и конце        : Нет
При вычислениях CRC использовались нулевые сэмплы : Да
Интерфейс                                         : Встроенный Win32-интерфейс для Win NT/2000

Выходной формат : Внутренние WAV-операции
Формат сэмплов  : 44.100 Гц; 16 бит; стерео


TOC извлечённого CD

     Трек |   Старт  | Длительность | Начальный сектор | Конечный сектор 
    ---------------------------------------------------------------------
       1  |  0:00.00 |   13:14.50   |           0      |      59599      
       2  | 13:14.50 |    7:47.52   |       59600      |      94676      
       3  | 21:02.27 |    4:04.48   |       94677      |     113024      
       4  | 25:07.00 |    7:15.15   |      113025      |     145664      
       5  | 32:22.15 |   12:28.25   |      145665      |     201789      
       6  | 44:50.40 |    4:02.65   |      201790      |     220004      
       7  | 48:53.30 |   12:22.05   |      220005      |     275659      


Характеристики диапазона извлечения и сообщения об ошибках

Выбранный диапазон

     Имя файла J:\New Torrents\Rick Wakeman - Rick Wakeman's Greatest Hits\Rick Wakeman - Rick Wakeman's Greatest Hits (Disk 1 of 2).wav

     Пиковый уровень 98.8 %
     Качество диапазона 100.0 %
     CRC теста 3DE8AD04
     CRC копии 3DE8AD04
     Копирование... OK

Ошибок не произошло

 
AccurateRip: сводка
 
Трек  1  точность не определена (достоверность 1)  [A8518B84], AccurateRip вернул [74E67D30]
Трек  2  точность не определена (достоверность 1)  [CA7C635F], AccurateRip вернул [013C6135]
Трек  3  точность не определена (достоверность 1)  [0C71F895], AccurateRip вернул [429DAAD9]
Трек  4  точность не определена (достоверность 1)  [1246E156], AccurateRip вернул [7EA93B77]
Трек  5  точность не определена (достоверность 1)  [C438B052], AccurateRip вернул [25B6A4A2]
Трек  6  точность не определена (достоверность 1)  [0645CE90], AccurateRip вернул [11722984]
Трек  7  точность не определена (достоверность 1)  [59071DE1], AccurateRip вернул [3E9F2F16]
 
Ни один трек не прошёл проверки на точность
В вашей базе может быть иной вариант штамповки диска

Конец отчёта


CD2
:::

Exact Audio Copy V0.99 prebeta 4 from 23. January 2008

Отчёт EAC об извлечении, выполненном 24. августа 2008, 13:03

Rick Wakeman / Rick Wakeman's Greatest Hits (Disk 2 of 2)

Дисковод: PIONEER DVD-RW  DVR-108   Adapter: 4  ID: 1

Режим чтения                 : Достоверность
Использование точного потока : Да
Отключение кэша аудио        : Да
Использование указателей C2  : Нет

Коррекция смещения при чтении                     : 48
Способность читать области Lead-in и Lead-out     : Нет
Заполнение пропущенных сэмплов тишиной            : Да
Удаление блоков с тишиной в начале и конце        : Нет
При вычислениях CRC использовались нулевые сэмплы : Да
Интерфейс                                         : Встроенный Win32-интерфейс для Win NT/2000

Выходной формат : Внутренние WAV-операции
Формат сэмплов  : 44.100 Гц; 16 бит; стерео


TOC извлечённого CD

     Трек |   Старт  | Длительность | Начальный сектор | Конечный сектор 
    ---------------------------------------------------------------------
       1  |  0:00.32 |    2:02.08   |          32      |       9189      
       2  |  2:02.40 |    4:02.55   |        9190      |      27394      
       3  |  6:05.20 |    4:13.60   |       27395      |      46429      
       4  | 10:19.05 |    3:51.60   |       46430      |      63814      
       5  | 14:10.65 |    2:59.72   |       63815      |      77311      
       6  | 17:10.62 |    1:56.65   |       77312      |      86076      
       7  | 19:07.52 |    4:31.33   |       86077      |     106434      
       8  | 23:39.10 |    4:18.12   |      106435      |     125796      
       9  | 27:57.22 |    2:51.08   |      125797      |     138629      
      10  | 30:48.30 |    3:52.65   |      138630      |     156094      
      11  | 34:41.20 |    3:41.65   |      156095      |     172734      
      12  | 38:23.10 |    6:57.55   |      172735      |     204064      
      13  | 45:20.65 |    4:05.50   |      204065      |     222489      
      14  | 49:26.40 |    5:53.70   |      222490      |     249034      
      15  | 55:20.35 |    6:36.72   |      249035      |     278806      


Характеристики диапазона извлечения и сообщения об ошибках

Выбранный диапазон

     Имя файла J:\New Torrents\Rick Wakeman - Rick Wakeman's Greatest Hits\Rick Wakeman - Rick Wakeman's Greatest Hits (Disk 2 of 2).wav

     Пиковый уровень 100.0 %
     Качество диапазона 99.9 %
     CRC копии 3F5A4B75
     Копирование... OK

Ошибок не произошло

 
AccurateRip: сводка
 
Трек  1  точность не определена (достоверность 1)  [0180B3DC], AccurateRip вернул [1EABC35C]
Трек  2  точность не определена (достоверность 1)  [895425D2], AccurateRip вернул [345353D2]
Трек  3  точность не определена (достоверность 1)  [D2B1717A], AccurateRip вернул [BB98C07A]
Трек  4  точность не определена (достоверность 1)  [27FFB887], AccurateRip вернул [D7153CC7]
Трек  5  точность не определена (достоверность 1)  [3D29E437], AccurateRip вернул [1A48BFB7]
Трек  6  точность не определена (достоверность 1)  [6606A65B], AccurateRip вернул [741DCE9B]
Трек  7  точность не определена (достоверность 1)  [C21C64C2], AccurateRip вернул [89135CC2]
Трек  8  точность не определена (достоверность 1)  [A559FE5E], AccurateRip вернул [D590431E]
Трек  9  точность не определена (достоверность 1)  [E1DC69DD], AccurateRip вернул [C33C15DD]
Трек 10  точность не определена (достоверность 1)  [9C3CAA18], AccurateRip вернул [02AB5C98]
Трек 11  точность не определена (достоверность 1)  [D4D23F62], AccurateRip вернул [A3ACB862]
Трек 12  точность не определена (достоверность 1)  [E98D1D0A], AccurateRip вернул [1036DC4A]
Трек 13  точность не определена (достоверность 1)  [D83B2999], AccurateRip вернул [67E04DD9]
Трек 14  точность не определена (достоверность 1)  [3FD2CC49], AccurateRip вернул [68641589]
Трек 15  точность не определена (достоверность 1)  [7F4F5960], AccurateRip вернул [F3C43C20]
 
Ни один трек не прошёл проверки на точность
В вашей базе может быть иной вариант штамповки диска

Конец отчёта



Create a new paste based on this one


Comments: