[ create a new paste ] login | about

Link: http://codepad.org/nASyGSwH    [ raw code | fork ]

Plain Text, pasted on Jul 11:
[CUETools log; Date: 7/11/2018 7:28:23 AM; Version: 2.1.5]
[CTDB TOCID: VUzpwl9o4wHDGvo99oUO3r8186M-] found.
Track | CTDB Status
  1   | (118/141) Accurately ripped
  2   | (118/141) Accurately ripped
  3   | (118/141) Accurately ripped
  4   | (139/141) Accurately ripped
  5   | (139/141) Accurately ripped
  6   | (138/141) Accurately ripped
  7   | (119/141) Accurately ripped
  8   | (118/141) Accurately ripped
  9   | (137/141) Accurately ripped
 10   | (138/141) Accurately ripped
[AccurateRip ID: 001e8661-00ec31fe-9711e10a] found.
Track   [  CRC   |   V2   ] Status
 01     [c0acc4f4|f07719f9] (000+007/129) Accurately ripped
 02     [60fa2cee|8377bfa7] (000+007/129) Accurately ripped
 03     [73103205|0cd833bf] (000+007/125) Accurately ripped
 04     [176fbaeb|58f54b0f] (000+007/127) Accurately ripped
 05     [35651b97|83d6807a] (000+007/126) Accurately ripped
 06     [790bff28|42eed6bc] (000+007/126) Accurately ripped
 07     [e8ef7d5d|8e5698a3] (000+007/128) Accurately ripped
 08     [32faf8f1|02315430] (000+007/126) Accurately ripped
 09     [af797b0d|f73ca003] (000+007/127) Accurately ripped
 10     [97395cc6|403ca677] (000+007/124) Accurately ripped
Offsetted by -661:
 01     [c017f8f9] (012/129) Accurately ripped
 02     [eb9b8125] (012/129) Accurately ripped
 03     [6ecedda7] (012/125) Accurately ripped
 04     [c6b5ad17] (012/127) Accurately ripped
 05     [6024e1bb] (012/126) Accurately ripped
 06     [23067c9c] (012/126) Accurately ripped
 07     [493d347b] (012/128) Accurately ripped
 08     [76c45dc7] (012/126) Accurately ripped
 09     [ddc44870] (012/127) Accurately ripped
 10     [517b96ef] (012/124) Accurately ripped
Offsetted by -658:
 01     [0c697a27] (005/129) Accurately ripped
 02     [6ae1903c] (005/129) Accurately ripped
 03     [efc7f7b6] (005/125) Accurately ripped
 04     [80add8d1] (005/127) Accurately ripped
 05     [c79e62ff] (005/126) Accurately ripped
 06     [cd4a86a9] (004/126) Accurately ripped
 07     [ea07ffde] (005/128) Accurately ripped
 08     [a0bca1c1] (005/126) Accurately ripped
 09     [b06f2d6b] (005/127) Accurately ripped
 10     [242fbd13] (005/124) Accurately ripped
Offsetted by 6:
 01     [3d7ea7b6] (029/129) Accurately ripped
 02     [198303a6] (028/129) Accurately ripped
 03     [e3f746e2] (026/125) Accurately ripped
 04     [b9ba15ab] (028/127) Accurately ripped
 05     [706e95d8] (028/126) Accurately ripped
 06     [ce341458] (028/126) Accurately ripped
 07     [dba85ec2] (029/128) Accurately ripped
 08     [394472b0] (028/126) Accurately ripped
 09     [b3f9fdf2] (028/127) Accurately ripped
 10     [38c3d5c7] (025/124) Accurately ripped
Offsetted by -714:
 01     [2815513c] (000/129) No match (V2 was not tested)
 02     [16103ba3] (000/129) No match (V2 was not tested)
 03     [932e5e2d] (000/125) No match (V2 was not tested)
 04     [5f3d1871] (000/127) No match (V2 was not tested)
 05     [2a54786c] (000/126) No match (V2 was not tested)
 06     [f24e262d] (000/126) No match (V2 was not tested)
 07     [755f8116] (000/128) No match (V2 was not tested)
 08     [20df9ce9] (000/126) No match (V2 was not tested)
 09     [2e53388c] (000/127) No match (V2 was not tested)
 10     [846c4108] (000/124) No match (V2 was not tested)
Offsetted by -655:
 01     [c0f6b21b] (000/129) No match (V2 was not tested)
 02     [f2ed0408] (000/129) No match (V2 was not tested)
 03     [8e983497] (000/125) No match (V2 was not tested)
 04     [22484bec] (000/127) No match (V2 was not tested)
 05     [2af2dbc5] (000/126) No match (V2 was not tested)
 06     [778e90bf] (000/126) No match (V2 was not tested)
 07     [29d4c627] (000/128) No match (V2 was not tested)
 08     [1242ddb1] (000/126) No match (V2 was not tested)
 09     [bbb4d2b3] (000/127) No match (V2 was not tested)
 10     [3ea218e0] (000/124) No match (V2 was not tested)
Offsetted by -92:
 01     [4ee4c303] (002/129) Accurately ripped
 02     [3e44acf8] (002/129) Accurately ripped
 03     [b39cbeac] (000/125) No match (V2 was not tested)
 04     [88800ed9] (000/127) No match (V2 was not tested)
 05     [9439de91] (000/126) No match (V2 was not tested)
 06     [d48c11fb] (000/126) No match (V2 was not tested)
 07     [7e72b031] (000/128) No match (V2 was not tested)
 08     [51602814] (000/126) No match (V2 was not tested)
 09     [b0b5dc70] (000/127) No match (V2 was not tested)
 10     [080c898e] (000/124) No match (V2 was not tested)
Offsetted by 8:
 01     [3cfd9cf8] (000/129) No match
 02     [4d027880] (000/129) No match
 03     [e00ea322] (000/125) No match (V2 was not tested)
 04     [d69f124e] (003/127) Accurately ripped
 05     [dfd9b911] (003/126) Accurately ripped
 06     [3fec1b68] (003/126) Accurately ripped
 07     [beabf30e] (000/128) No match
 08     [e9fdce44] (000/126) No match (V2 was not tested)
 09     [17654c0d] (003/127) Accurately ripped
 10     [917853dc] (003/124) Accurately ripped

Track Peak [ CRC32  ] [W/O NULL] [  LOG   ]
 --  100.0 [4FA08999] [57FB829A]   CRC32   
 01  100.0 [BB5647BA] [4626C1E6]           
 02  100.0 [C03DCF64] [C6C55091]           
 03  100.0 [6918A88A] [111EACAD]           
 04  100.0 [5A0D6886] [F61AAF16]           
 05  100.0 [B2A7CC42] [1A295BBF]           
 06  100.0 [3F878CBE] [75C53D4F]           
 07  100.0 [EA733F3A] [7E51BE53]           
 08  100.0 [22423BC8] [DF1E4967]           
 09  100.0 [1C01E1A0] [9498D586]           
 10  100.0 [DB434EBA] [6A60361C]           



Create a new paste based on this one


Comments: