[ create a new paste ] login | about

Link: http://codepad.org/nIJ0RGSg    [ raw code | fork ]

Plain Text, pasted on Jul 21:
Aqualung – 5.1 Surround 2016 Remixed
->
foobar2000 1.3.17 / Dynamic Range Meter 1.1.1
log date: 2018-02-11 17:57:50

--------------------------------------------------------------------------------
Analyzed: Jethro Tull / Aqualung (5.1 Surround Sound 2016 Remixed)
--------------------------------------------------------------------------------

DR         Peak         RMS     Duration Track
--------------------------------------------------------------------------------
DR15      -0.07 dB   -20.40 dB      6:38 01-Aqualung
DR13      -0.08 dB   -17.80 dB      4:11 02-Cross-Eyed Mary
DR13      -4.49 dB   -28.79 dB      1:23 03-Cheap Day Return
DR15      -0.09 dB   -24.18 dB      3:53 04-Mother Goose
DR14      -3.14 dB   -28.18 dB      1:55 05-Wond'ring Aloud
DR14      -1.01 dB   -20.85 dB      3:17 06-Up To Me
DR15       0.00 dB   -20.52 dB      7:13 07-My God
DR13      -0.11 dB   -18.78 dB      3:19 08-Hymn 43
DR14      -3.82 dB   -29.24 dB      1:13 09-Slipstream
DR14      -0.07 dB   -20.67 dB      4:42 10-Locomotive Breath
DR14      -0.06 dB   -22.12 dB      6:02 11-Wind-Up
--------------------------------------------------------------------------------

Number of tracks:  11
Official DR value: DR14

Samplerate:        96000 Hz
Channels:          6
Bits per sample:   24
Bitrate:           6356 kbps
Codec:             FLAC
================================================================================
->
*********************************************************************************************************************************************************
*********************************************************************************************************************************************************
->
Aqualung – Flat Transfer From The Original Stereo Master
->
foobar2000 1.3.17 / Dynamic Range Meter 1.1.1
log date: 2018-02-11 17:59:20

--------------------------------------------------------------------------------
Analyzed: Jethro Tull / Aqualung (Flat Transfer From The Original Stereo Master)
--------------------------------------------------------------------------------

DR         Peak         RMS     Duration Track
--------------------------------------------------------------------------------
DR15      -2.83 dB   -21.37 dB      6:38 01-Aqualung
DR13      -4.03 dB   -20.06 dB      4:12 02-Cross-Eyed Mary
DR15      -4.14 dB   -23.75 dB      1:23 03-Cheap Day Return
DR15      -3.87 dB   -22.27 dB      3:53 04-Mother Goose
DR15      -4.44 dB   -24.97 dB      1:56 05-Wond'ring Aloud
DR15      -2.95 dB   -21.66 dB      3:17 06-Up To Me
DR15      -0.54 dB   -20.52 dB      7:13 07-My God
DR14      -3.24 dB   -20.01 dB      3:19 08-Hymn 43
DR15      -3.71 dB   -24.23 dB      1:13 09-Slipstream
DR15      -2.59 dB   -22.28 dB      4:26 10-Locomotive Breath
DR14      -5.81 dB   -23.65 dB      6:03 11-Wind-Up
--------------------------------------------------------------------------------

Number of tracks:  11
Official DR value: DR15

Samplerate:        96000 Hz
Channels:          2
Bits per sample:   24
Bitrate:           2560 kbps
Codec:             FLAC
================================================================================
->
*********************************************************************************************************************************************************
*********************************************************************************************************************************************************
->
Aqualung – Original 1974 Quad Mix (4.1)
->
foobar2000 1.3.17 / Dynamic Range Meter 1.1.1
log date: 2018-02-11 18:04:23

--------------------------------------------------------------------------------
Analyzed: Jethro Tull / Aqualung (Original 1974 Quad Mix)
--------------------------------------------------------------------------------

DR         Peak         RMS     Duration Track
--------------------------------------------------------------------------------
DR13      -1.84 dB   -20.85 dB      6:40 01-Aqualung
DR13       0.00 dB   -19.13 dB      4:11 02-Cross-Eyed Mary
DR12      -4.89 dB   -23.60 dB      1:23 03-Cheap Day Return
DR15      -0.02 dB   -22.53 dB      3:54 04-Mother Goose
DR13      -4.04 dB   -28.59 dB      1:57 05-Wond'ring Aloud
DR13       0.00 dB   -18.31 dB      3:14 06-Up To Me
DR15       0.00 dB   -21.80 dB      7:13 07-My God
DR12       0.00 dB   -18.13 dB      3:19 08-Hymn 43
DR14      -4.55 dB   -29.12 dB      1:15 09-Slipstream
DR14       0.00 dB   -20.39 dB      4:25 10-Locomotive Breath
DR13       0.00 dB   -20.57 dB      5:23 11-Wind-Up
--------------------------------------------------------------------------------

Number of tracks:  11
Official DR value: DR14

Samplerate:        96000 Hz
Channels:          5
Bits per sample:   24
Bitrate:           5774 kbps
Codec:             FLAC
================================================================================
->
*********************************************************************************************************************************************************
*********************************************************************************************************************************************************
->
Aqualung – Stereo 2016 Remixed
->
foobar2000 1.3.17 / Dynamic Range Meter 1.1.1
log date: 2018-02-11 18:06:45

--------------------------------------------------------------------------------
Analyzed: Jethro Tull / Aqualung (Stereo 2016 Remixed)
--------------------------------------------------------------------------------

DR         Peak         RMS     Duration Track
--------------------------------------------------------------------------------
DR14      -0.10 dB   -16.66 dB      6:38 01-Aqualung
DR13      -0.10 dB   -15.18 dB      4:12 02-Cross-Eyed Mary
DR15      -4.64 dB   -24.03 dB      1:23 03-Cheap Day Return
DR16      -0.10 dB   -19.84 dB      3:53 04-Mother Goose
DR15      -1.50 dB   -21.93 dB      1:56 05-Wond'ring Aloud
DR13      -1.00 dB   -16.69 dB      3:16 06-Up To Me
DR14      -0.10 dB   -18.01 dB      7:13 07-My God
DR14      -0.10 dB   -15.87 dB      3:19 08-Hymn 43
DR14      -3.10 dB   -23.66 dB      1:13 09-Slipstream
DR14      -0.10 dB   -17.10 dB      4:42 10-Locomotive Breath
DR13      -0.10 dB   -17.42 dB      6:03 11-Wind-Up
--------------------------------------------------------------------------------

Number of tracks:  11
Official DR value: DR14

Samplerate:        96000 Hz
Channels:          2
Bits per sample:   24
Bitrate:           2572 kbps
Codec:             FLAC
================================================================================
->
*********************************************************************************************************************************************************
*********************************************************************************************************************************************************
->
Associated 1970 & 1971 Recordings – 5.1 Surround 2016 Remixed
->
foobar2000 1.3.17 / Dynamic Range Meter 1.1.1
log date: 2018-02-11 18:10:04

--------------------------------------------------------------------------------
Analyzed: Jethro Tull / Associated 1970 & 1971 Recordings (5.1 Surround Sound 2016 Remixed)
--------------------------------------------------------------------------------

DR         Peak         RMS     Duration Track
--------------------------------------------------------------------------------
DR14      -0.06 dB   -19.56 dB      2:49 01-Lick Your Fingers Clean
DR12      -8.44 dB   -25.58 dB      1:38 02-Just Trying To Be
DR16      -0.06 dB   -21.61 dB      9:43 03-My God (Early Version)
DR14      -0.08 dB   -21.06 dB      5:21 04-Wind-Up (Early Version)
DR13      -0.10 dB   -21.54 dB      7:08 05-Wond'ring Aloud, Again
DR14      -0.11 dB   -21.31 dB      3:20 06-Life Is A Long Song (New Mix)
DR14      -0.07 dB   -18.40 dB      3:13 07-Up The 'Pool (New Mix)
--------------------------------------------------------------------------------

Number of tracks:  7
Official DR value: DR14

Samplerate:        96000 Hz
Channels:          6
Bits per sample:   24
Bitrate:           7002 kbps
Codec:             FLAC
================================================================================
->
*********************************************************************************************************************************************************
*********************************************************************************************************************************************************
->
Associated 1970 & 1971 Recordings – Stereo 2016 Remixed
->
foobar2000 1.3.17 / Dynamic Range Meter 1.1.1
log date: 2018-02-11 18:11:03

--------------------------------------------------------------------------------
Analyzed: Jethro Tull / Associated 1970 & 1971 Recordings (Stereo 2016 Remixed)
--------------------------------------------------------------------------------

DR         Peak         RMS     Duration Track
--------------------------------------------------------------------------------
DR14      -0.10 dB   -16.26 dB      2:49 01-Lick Your Fingers Clean
DR12      -5.75 dB   -22.65 dB      1:38 02-Just Trying To Be
DR15      -0.10 dB   -19.39 dB      9:43 03-My God (Early Version)
DR13      -3.28 dB   -19.77 dB      1:52 04-Wond'ring Aloud (13th December 1970)
DR14      -0.10 dB   -17.83 dB      5:22 05-Wind-Up (Early Version)
DR15      -3.10 dB   -24.01 dB      0:55 06-Slipstream (Take 2)
DR14      -4.11 dB   -22.08 dB      1:13 07-Up The 'Pool (Early Version)
DR13      -0.10 dB   -16.27 dB      7:08 08-Wond'ring Aloud, Again
DR13      -0.10 dB   -17.22 dB      3:20 09-Life Is A Long Song (New Mix)
DR13      -0.10 dB   -15.41 dB      3:12 10-Up The 'Pool (New Mix)
--------------------------------------------------------------------------------

Number of tracks:  10
Official DR value: DR14

Samplerate:        96000 Hz
Channels:          2
Bits per sample:   24
Bitrate:           2552 kbps
Codec:             FLAC
================================================================================
->
*********************************************************************************************************************************************************
*********************************************************************************************************************************************************
->
Life Is A Long Song (EP) – Flat Transfer From The Original Stereo Master
->
foobar2000 1.3.17 / Dynamic Range Meter 1.1.1
log date: 2018-02-11 18:11:22

--------------------------------------------------------------------------------
Analyzed: Jethro Tull / Life Is A Long Song (Flat Transfer From The Original Stereo Master)
--------------------------------------------------------------------------------

DR         Peak         RMS     Duration Track
--------------------------------------------------------------------------------
DR13      -2.33 dB   -18.34 dB      3:21 01-Life Is A Long Song
DR13      -2.05 dB   -17.16 dB      3:13 02-Up The 'Pool
DR11      -1.52 dB   -14.78 dB      3:01 03-Dr Bogenbroom
DR12      -2.27 dB   -15.90 dB      2:09 04-From Later
DR14      -4.78 dB   -22.43 dB      1:36 05-Nursie
--------------------------------------------------------------------------------

Number of tracks:  5
Official DR value: DR12

Samplerate:        96000 Hz
Channels:          2
Bits per sample:   24
Bitrate:           2921 kbps
Codec:             FLAC
================================================================================



Create a new paste based on this one


Comments: