[ create a new paste ] login | about

Link: http://codepad.org/nJMacQlO    [ raw code | fork ]

Plain Text, pasted on Jul 5:
foobar2000 1.4.4 / Dynamic Range Meter 1.1.1
log date: 2019-07-04 16:47:55

--------------------------------------------------------------------------------
Analyzed: Various / Compilation SACD PentaTone
--------------------------------------------------------------------------------

DR         Peak         RMS     Duration Track
--------------------------------------------------------------------------------
DR14     -10.82 dB   -31.44 dB      8:02 01-Serenade in G KV 525 - "Eine kleine Nachtmusik" Movement 1: Allegro 
DR13      -7.87 dB   -27.13 dB      5:11 02-Piano Sonata No.23 in F minor, "Appassionata" - Movement 3: Allegro ma non troppo
DR15      -6.15 dB   -28.36 dB      4:47 03-Violin concerto in D minor - Movement 3: Allegro
DR15      -9.17 dB   -29.16 dB      5:15 04-Orchestral Music from "Notre Dame" - Carnival Music
DR13     -20.10 dB   -36.25 dB      8:58 05-Symphony No. 5 in C sharp minor - Movement 4: Adagietto (Sehr langsam)
DR12      -9.53 dB   -26.81 dB      2:48 06-Toccata et Fuga in D minor BWV 565 - Toccata 
DR13     -10.55 dB   -28.30 dB      6:57 07-Toccata et Fuga in D minor BWV 565 - Fuga
DR14     -10.59 dB   -30.77 dB      4:42 08-Ave Maria D. 839 (Hymne andie Jungfrau)
DR14     -12.77 dB   -31.23 dB      4:25 09-Quartet in F, K 370 (368b) for Oboe, Violin, Viola and Cello - III. Rondeau: Allegro
DR15      -9.91 dB   -31.25 dB      2:27 10-Vespers, Op.37 - Bogoroditse Devo
DR13     -14.52 dB   -32.68 dB      2:30 11-Vespers, Op.37 - Slava v vyshnikh Bogu
DR13     -11.35 dB   -30.72 dB      3:52 12-Serenade for String Orchestra in C  Op. 48 - Movement 2: Waltz: Moderato
DR14      -4.53 dB   -24.17 dB      3:49 13-from: Messiah "Hallelujah"
DR13     -14.62 dB   -31.71 dB      3:15 14-Sinfonia a Quatro in B flat - Movement 2: Andante
DR14      -5.74 dB   -25.80 dB      7:01 15-Piano Concerto No.1 in B flat minor, Op.23 - Movement 3: Allegro con fuoco
--------------------------------------------------------------------------------

Number of tracks:  15
Official DR value: DR14

Samplerate:        2822400 Hz / PCM Samplerate: 176400 Hz
Channels:          5
Bits per sample:   1
Bitrate:           14112 kbps
Codec:             DST64
================================================================================

--------------------------------------------------------------------------------
Analyzed: Various / Compilation SACD PentaTone
--------------------------------------------------------------------------------

DR         Peak         RMS     Duration Track
--------------------------------------------------------------------------------
DR14      -9.82 dB   -28.07 dB      8:02 01-Serenade in G KV 525 - "Eine kleine Nachtmusik" Movement 1: Allegro 
DR15      -7.43 dB   -26.16 dB      5:11 02-Piano Sonata No.23 in F minor, "Appassionata" - Movement 3: Allegro ma non troppo
DR15      -8.13 dB   -28.30 dB      4:47 03-Violin concerto in D minor - Movement 3: Allegro
DR15      -7.18 dB   -27.18 dB      5:15 04-Orchestral Music from "Notre Dame" - Carnival Music
DR13     -20.10 dB   -36.67 dB      8:58 05-Symphony No. 5 in C sharp minor - Movement 4: Adagietto (Sehr langsam)
DR12      -9.29 dB   -26.17 dB      2:48 06-Toccata et Fuga in D minor BWV 565 - Toccata 
DR13     -10.15 dB   -27.56 dB      6:57 07-Toccata et Fuga in D minor BWV 565 - Fuga
DR13     -13.69 dB   -30.10 dB      4:42 08-Ave Maria D. 839 (Hymne andie Jungfrau)
DR13     -11.79 dB   -27.86 dB      4:25 09-Quartet in F, K 370 (368b) for Oboe, Violin, Viola and Cello - III. Rondeau: Allegro
DR15      -6.59 dB   -28.38 dB      2:27 10-Vespers, Op.37 - Bogoroditse Devo
DR13     -12.30 dB   -30.81 dB      2:30 11-Vespers, Op.37 - Slava v vyshnikh Bogu
DR13      -9.95 dB   -27.19 dB      3:52 12-Serenade for String Orchestra in C  Op. 48 - Movement 2: Waltz: Moderato
DR13      -6.77 dB   -24.30 dB      3:49 13-from: Messiah "Hallelujah"
DR13     -11.89 dB   -28.71 dB      3:15 14-Sinfonia a Quatro in B flat - Movement 2: Andante
DR14      -5.22 dB   -24.38 dB      7:01 15-Piano Concerto No.1 in B flat minor, Op.23 - Movement 3: Allegro con fuoco
--------------------------------------------------------------------------------

Number of tracks:  15
Official DR value: DR14

Samplerate:        2822400 Hz / PCM Samplerate: 176400 Hz
Channels:          2
Bits per sample:   1
Bitrate:           5645 kbps
Codec:             DST64
================================================================================




Create a new paste based on this one


Comments: