[ create a new paste ] login | about

Link: http://codepad.org/nMia668P    [ raw code | fork ]

Plain Text, pasted on Dec 29:
foobar2000 1.3.17 / Dynamic Range Meter 1.1.1
log date: 2018-11-22 17:53:16

--------------------------------------------------------------------------------
Analyzed: ? / LE SILENCE
--------------------------------------------------------------------------------

DR         Peak         RMS     Duration Track
--------------------------------------------------------------------------------
DR11      -5.88 dB   -21.36 dB      5:39 01-Sun And Water
DR11      -6.12 dB   -20.42 dB      4:20 02-La Guitarra - Short Dreamtake Mix
DR12      -6.08 dB   -23.27 dB      4:30 03-The Ending - Short Cut
DR11      -6.89 dB   -22.57 dB      3:42 04-It's A Pleasure
DR12      -5.70 dB   -21.48 dB      4:29 05-Madhouse - Bar Mix
DR13      -6.34 dB   -22.60 dB      3:40 06-Lounge Suite
DR12      -6.09 dB   -21.68 dB      4:41 07-Quickfinger
DR12      -6.11 dB   -22.23 dB      3:50 08-Miracle Maker - Nightline Remix
DR11      -6.23 dB   -20.09 dB      4:51 09-Chillin' Guitar - Trippin' Mix
DR11      -6.08 dB   -22.37 dB      4:45 10-Siesta Del Sol - Laid Back Summer Cut
DR12      -6.74 dB   -23.41 dB      5:19 11-The Flow
DR11      -6.54 dB   -22.26 dB      4:33 12-Past Present Future
DR12      -6.18 dB   -22.09 dB      4:33 13-Artico Purcente
DR9       -5.92 dB   -19.31 dB      5:30 14-Make You Mine - Soulsession Mix
--------------------------------------------------------------------------------

Number of tracks:  14
Official DR value: DR11

Samplerate:        2822400 Hz / PCM Samplerate: 176400 Hz
Channels:          5
Bits per sample:   1
Bitrate:           14112 kbps
Codec:             DST64
================================================================================

--------------------------------------------------------------------------------
Analyzed: ? / LE SILENCE
--------------------------------------------------------------------------------

DR         Peak         RMS     Duration Track
--------------------------------------------------------------------------------
DR10      -5.24 dB   -17.85 dB      5:39 01-Sun And Water
DR10      -5.73 dB   -17.04 dB      4:20 02-La Guitarra - Short Dreamtake Mix
DR12      -5.71 dB   -19.84 dB      4:30 03-The Ending - Short Cut
DR11      -6.44 dB   -19.14 dB      3:42 04-It's A Pleasure
DR11      -5.34 dB   -17.73 dB      4:29 05-Madhouse - Bar Mix
DR12      -5.72 dB   -18.99 dB      3:40 06-Lounge Suite
DR11      -5.42 dB   -18.14 dB      4:41 07-Quickfinger
DR11      -5.73 dB   -18.57 dB      3:50 08-Miracle Maker - Nightline Remix
DR9       -5.40 dB   -16.62 dB      4:51 09-Chillin' Guitar - Trippin' Mix
DR11      -5.68 dB   -18.92 dB      4:45 10-Siesta Del Sol - Laid Back Summer Cut
DR13      -6.26 dB   -20.17 dB      5:19 11-The Flow
DR10      -6.07 dB   -18.84 dB      4:33 12-Past Present Future
DR11      -5.48 dB   -18.54 dB      4:33 13-Artico Purcente
DR8       -5.41 dB   -15.91 dB      5:30 14-Make You Mine - Soulsession Mix
--------------------------------------------------------------------------------

Number of tracks:  14
Official DR value: DR11

Samplerate:        2822400 Hz / PCM Samplerate: 176400 Hz
Channels:          2
Bits per sample:   1
Bitrate:           5645 kbps
Codec:             DST64
================================================================================




Create a new paste based on this one


Comments: