[ create a new paste ] login | about

Link: http://codepad.org/nNz0W4Gp    [ raw code | fork ]

Plain Text, pasted on May 8:
foobar2000 1.4.1 / Dynamic Range Meter 1.1.1
log date: 2019-05-07 23:14:09

--------------------------------------------------------------------------------
Analyzed: MILES DAVIS / MY FUNNY VALENTINE
--------------------------------------------------------------------------------

DR         Peak         RMS     Duration Track
--------------------------------------------------------------------------------
DR12      -0.40 dB   -17.65 dB     15:08 01-MY FUNNY VALENTINE
DR14      -1.48 dB   -18.77 dB     14:55 02-ALL OF YOU
DR11      -0.09 dB   -15.48 dB     13:02 03-STELLA BY STARLIGHT
DR12      -0.08 dB   -14.19 dB      8:56 04-ALL BLUES
DR13      -0.10 dB   -16.19 dB     11:14 05-I THOUGHT ABOUT YOU
--------------------------------------------------------------------------------

Number of tracks:  5
Official DR value: DR12

Samplerate:        88200 Hz
Channels:          2
Bits per sample:   24
Bitrate:           2698 kbps
Codec:             FLAC
================================================================================




Create a new paste based on this one


Comments: