[ create a new paste ] login | about

Link: http://codepad.org/nOfRDvei    [ raw code | fork ]

Plain Text, pasted on Mar 23:
foobar2000 1.3.10 / Dynamic Range Meter 1.1.1
log date: 2017-03-23 10:05:58

--------------------------------------------------------------------------------
Analyzed: The Zombies / Greatest Hits
--------------------------------------------------------------------------------

DR         Peak         RMS     Duration Track
--------------------------------------------------------------------------------
DR11      -5.86 dB   -19.12 dB      2:22 01-She's Not There
DR10      -7.61 dB   -20.45 dB      2:35 02-I Can't Make Up My Mind
DR11      -8.19 dB   -20.82 dB      2:05 03-Tell Her No
DR11      -6.88 dB   -19.91 dB      2:36 04-You Make Me Feel Good
DR12      -6.33 dB   -21.30 dB      2:09 05-Kind of Girl
DR11      -5.24 dB   -21.13 dB      2:05 06-Leave Me Be
DR11      -8.38 dB   -20.89 dB      2:03 07-Sometimes
DR10      -6.98 dB   -19.35 dB      2:10 08-Don't Cry For Me
DR11      -6.02 dB   -19.95 dB      1:49 09-It's Alright With Me
DR11      -7.94 dB   -20.48 dB      2:04 10-I Don't Want To Know
DR12      -7.27 dB   -21.03 dB      3:10 11-I Love You
DR11      -7.45 dB   -20.87 dB      2:28 12-Nothing's Changed
DR10      -7.55 dB   -21.89 dB      1:58 13-I Remember When I Loved Her
DR11      -6.17 dB   -19.45 dB      3:00 14-Indication
DR10      -9.51 dB   -21.83 dB      2:07 15-Just Out Of Reach
DR11      -8.61 dB   -21.30 dB      1:37 16-What More Can I Do
DR10      -6.33 dB   -19.39 dB      2:16 17-She Does Everything For Me
DR12      -5.22 dB   -20.77 dB      3:31 18-Time of the Season
DR12      -5.73 dB   -20.04 dB      2:22 19-She's Not There ("Hit Single" Version)
DR12      -6.29 dB   -21.01 dB      3:35 20-Time of the Season (Alternate Mix)
--------------------------------------------------------------------------------

Number of tracks:  20
Official DR value: DR11

Samplerate:        2822400 Hz / PCM Samplerate: 88200 Hz
Channels:          2
Bits per sample:   24
Bitrate:           5645 kbps
Codec:             DSD64
================================================================================




Create a new paste based on this one


Comments: