[ create a new paste ] login | about

Link: http://codepad.org/nQq95YGi    [ raw code | fork ]

Plain Text, pasted on Apr 15:
foobar2000 1.3.14 / Dynamic Range Meter 1.1.1
log date: 2017-04-14 21:02:02

--------------------------------------------------------------------------------
Analyzed: Bob Dylan / Live 1964 AF 1
--------------------------------------------------------------------------------

DR         Peak         RMS     Duration Track
--------------------------------------------------------------------------------
DR13      -1.30 dB   -16.83 dB      3:56 01-The Times They Are A-Changin'
DR13      -1.23 dB   -17.54 dB      2:55 02-Spanish Harlem Incident
DR12      -1.82 dB   -17.79 dB      4:22 03-Talkin' John Birch Paranoid Blues
DR13      -2.41 dB   -18.85 dB      5:12 04-To Ramona
DR14      -1.87 dB   -20.17 dB      4:47 05-Who Killed Davey Moore?
DR13      -3.11 dB   -20.58 dB      8:37 06-Gates Of Eden
DR13      -2.11 dB   -17.75 dB      3:56 07-If You Gotta Go, Go Now (Or Else You Got To Stay All Night)
DR15      -1.79 dB   -20.25 dB      9:56 08-It's Alright, Ma (I'm Only Bleeding)
DR14      -0.44 dB   -19.63 dB      5:29 09-I Don't Believe You (She Acts Like We Never Have Met)
DR14      -1.16 dB   -19.56 dB      6:38 10-Mr. Tambourine Man
DR13      -0.22 dB   -18.64 dB      7:46 11-A Hard Rain's A-Gonna Fall
--------------------------------------------------------------------------------

Number of tracks:  11
Official DR value: DR13

Samplerate:        44100 Hz
Channels:          2
Bits per sample:   16
Bitrate:           696 kbps
Codec:             FLAC
================================================================================



foobar2000 1.3.14 / Dynamic Range Meter 1.1.1
log date: 2017-04-14 21:02:46

--------------------------------------------------------------------------------
Analyzed: Bob Dylan / Live 1964 AF 2
--------------------------------------------------------------------------------

DR         Peak         RMS     Duration Track
--------------------------------------------------------------------------------
DR13      -2.90 dB   -18.86 dB      5:40 01-Talkin' World War III Blues
DR13      -2.55 dB   -19.16 dB      4:13 02-Don't Think Twice, It's All Right
DR14      -2.21 dB   -19.69 dB      7:07 03-The Lonesome Death Of Hattie Carroll
DR12      -1.81 dB   -17.70 dB      3:42 04-Mama, You Been On My Mind
DR12      -2.50 dB   -17.87 dB      4:06 05-Silver Dagger
DR12      -2.09 dB   -17.04 dB      6:09 06-With God On Our Side
DR12      -2.69 dB   -18.28 dB      5:21 07-It Ain't Me, Babe
DR12      -2.73 dB   -17.80 dB      4:00 08-All I Really Want To Do
--------------------------------------------------------------------------------

Number of tracks:  8
Official DR value: DR12

Samplerate:        44100 Hz
Channels:          2
Bits per sample:   16
Bitrate:           729 kbps
Codec:             FLAC
================================================================================




Create a new paste based on this one


Comments: