[ create a new paste ] login | about

Link: http://codepad.org/nTDG2WPx    [ raw code | fork ]

Plain Text, pasted on Nov 4:
foobar2000 1.3.17 / Dynamic Range Meter 1.1.1
log date: 2018-11-03 16:18:33

--------------------------------------------------------------------------------
Analyzed: Eagles / Legacy
--------------------------------------------------------------------------------

DR         Peak         RMS     Duration Track
--------------------------------------------------------------------------------
DR10       0.00 dB   -12.36 dB      7:01 80-Hotel California (Live in Santa Monica, 7/29/1980) [Remastered]
DR11       0.00 dB   -12.47 dB      4:35 81-Heartache Tonight (Live in Santa Monica, 7/29/1980) [Remastered]
DR12       0.00 dB   -13.59 dB      5:19 82-I Can't Tell You Why (Live in Santa Monica, 7/29/1980) [Remastered]
DR10      -0.03 dB   -12.17 dB      5:52 83-The Long Run (Live in Santa Monica, 7/29/1980) [Remastered]
DR10       0.00 dB   -12.16 dB      5:54 84-New Kid In Town (Live at The Forum, 10/22/1976) [Remastered]
DR10       0.00 dB   -12.72 dB      8:59 85-Life's Been Good (Live at Santa Monica, 7/29/1980) [Remastered]
DR12      -1.14 dB   -16.45 dB      3:40 86-Seven Bridges Road (Live at Santa Monica, 7/28/1980) [Remastered]
DR11      -0.10 dB   -15.72 dB      5:22 87-Wasted Time (Live at The Forum, 10/22/1976) [Remastered]
DR10      -0.10 dB   -13.03 dB      5:15 88-Take It To The Limit (Live at The Forum, 10/20/1976) [Remastered]
DR10      -9.88 dB   -22.23 dB      0:42 89-Doolin'-Dalton (Reprise II) [Live at The Forum, 10/21/76] [Remastered]
DR11       0.00 dB   -15.48 dB      3:58 90-Desperado (Live at The Forum, 10/21/1976) [Remastered]
DR11      -0.08 dB   -13.88 dB      3:48 91-Saturday Night (Live at Santa Monica, 7/28/1980) [Remastered]
DR10       0.00 dB   -12.28 dB      5:36 92-All Night Long (Live at Santa Monica, 7/27/1980) [Remastered]
DR11       0.00 dB   -12.39 dB      5:10 93-Life In The Fast Lane (Live at Long Beach, 07/31/1980) [Remastered]
DR10       0.00 dB   -11.94 dB      5:17 94-Take It Easy (Live at Santa Monica, 7/27/1980) [Remastered]
--------------------------------------------------------------------------------

Number of tracks:  15
Official DR value: DR11

Samplerate:        96000 Hz
Channels:          2
Bits per sample:   24
Bitrate:           2965 kbps
Codec:             FLAC
================================================================================




Create a new paste based on this one


Comments: