[ create a new paste ] login | about

Link: http://codepad.org/nTtnNHZp    [ raw code | fork ]

Plain Text, pasted on Jun 13:
Exact Audio Copy V1.0 beta 2 from 29. April 2011

EAC extraction logfile from 3. July 2011, 21:07

Jackson 5 / Joyful Jukebox Music / Boogie

Used drive  : HL-DT-STDVDRAM GSA-H60N   Adapter: 2  ID: 0

Read mode               : Secure
Utilize accurate stream : Yes
Defeat audio cache      : Yes
Make use of C2 pointers : No

Read offset correction                      : 667
Overread into Lead-In and Lead-Out          : No
Fill up missing offset samples with silence : Yes
Delete leading and trailing silent blocks   : No
Null samples used in CRC calculations       : Yes
Used interface                              : Native Win32 interface for Win NT & 2000

Used output format : Internal WAV Routines
Sample format      : 44.100 Hz; 16 Bit; Stereo


TOC of the extracted CD

     Track |   Start  |  Length  | Start sector | End sector 
    ---------------------------------------------------------
        1  |  0:00.00 |  3:14.62 |         0    |    14611   
        2  |  3:14.62 |  2:48.70 |     14612    |    27281   
        3  |  6:03.57 |  3:24.65 |     27282    |    42646   
        4  |  9:28.47 |  3:06.73 |     42647    |    56669   
        5  | 12:35.45 |  3:15.69 |     56670    |    71363   
        6  | 15:51.39 |  2:43.05 |     71364    |    83593   
        7  | 18:34.44 |  3:03.08 |     83594    |    97326   
        8  | 21:37.52 |  3:01.55 |     97327    |   110956   
        9  | 24:39.32 |  3:18.61 |    110957    |   125867   
       10  | 27:58.18 |  2:48.18 |    125868    |   138485   
       11  | 30:46.36 |  3:21.11 |    138486    |   153571   
       12  | 34:07.47 |  3:00.73 |    153572    |   167144   
       13  | 37:08.45 |  2:59.17 |    167145    |   180586   
       14  | 40:07.62 |  4:17.14 |    180587    |   199875   
       15  | 44:25.01 |  3:00.46 |    199876    |   213421   
       16  | 47:25.47 |  2:58.42 |    213422    |   226813   
       17  | 50:24.14 |  2:50.60 |    226814    |   239623   
       18  | 53:14.74 |  2:41.45 |    239624    |   251743   
       19  | 55:56.44 |  3:14.23 |    251744    |   266316   
       20  | 59:10.67 |  2:39.28 |    266317    |   278269   
       21  | 61:50.20 | 15:07.13 |    278270    |   346307   


Range status and errors

Selected range

     Filename C:\Documents and Settings\2011 Dear Michael 12 SHM-CD\Disc 10 Joyful Jukebox Music - Boogie\Joyful Jukebox Music - Boogie.wav

     Peak level 100.0 %
     Extraction speed 6.2 X
     Range quality 99.9 %
     Test CRC 30A87F86
     Copy CRC 30A87F86
     Copy OK

No errors occurred

 
AccurateRip summary
 
Track  1  cannot be verified as accurate (confidence 3)  [9223ACC9], AccurateRip returned [920C580C]  (AR v2)
Track  2  cannot be verified as accurate (confidence 3)  [D1988909], AccurateRip returned [2909E2FC]  (AR v2)
Track  3  cannot be verified as accurate (confidence 3)  [CC49EB48], AccurateRip returned [A99FFA84]  (AR v2)
Track  4  cannot be verified as accurate (confidence 3)  [1741F0C6], AccurateRip returned [4003C3C3]  (AR v2)
Track  5  cannot be verified as accurate (confidence 3)  [2654D4B8], AccurateRip returned [F117A0DB]  (AR v2)
Track  6  cannot be verified as accurate (confidence 3)  [32296532], AccurateRip returned [E0E2F4E4]  (AR v2)
Track  7  cannot be verified as accurate (confidence 3)  [41744B3D], AccurateRip returned [365676A3]  (AR v2)
Track  8  cannot be verified as accurate (confidence 3)  [E5A01426], AccurateRip returned [95C705C1]  (AR v2)
Track  9  cannot be verified as accurate (confidence 3)  [5000E4FF], AccurateRip returned [5E7716F1]  (AR v2)
Track 10  cannot be verified as accurate (confidence 3)  [E9928497], AccurateRip returned [82C14008]  (AR v2)
Track 11  cannot be verified as accurate (confidence 3)  [3B51F84A], AccurateRip returned [4B9038E0]  (AR v2)
Track 12  cannot be verified as accurate (confidence 3)  [6371CCBA], AccurateRip returned [808F30E4]  (AR v2)
Track 13  cannot be verified as accurate (confidence 3)  [4DB757A0], AccurateRip returned [F8BBA393]  (AR v2)
Track 14  cannot be verified as accurate (confidence 3)  [7C0377CD], AccurateRip returned [74A92EF1]  (AR v2)
Track 15  cannot be verified as accurate (confidence 3)  [05492C70], AccurateRip returned [7CE02174]  (AR v2)
Track 16  cannot be verified as accurate (confidence 3)  [3E37C044], AccurateRip returned [39AD5A8E]  (AR v2)
Track 17  cannot be verified as accurate (confidence 3)  [4A27E85F], AccurateRip returned [7A8B4D0B]  (AR v2)
Track 18  cannot be verified as accurate (confidence 3)  [E09B9B2D], AccurateRip returned [9544C374]  (AR v2)
Track 19  cannot be verified as accurate (confidence 3)  [F5C1F016], AccurateRip returned [5BF1E355]  (AR v2)
Track 20  cannot be verified as accurate (confidence 3)  [DD61F545], AccurateRip returned [6F4C3B55]  (AR v2)
Track 21  cannot be verified as accurate (confidence 3)  [C6D61AF8], AccurateRip returned [55EFD898]  (AR v2)
 
No tracks could be verified as accurate
You may have a different pressing from the one(s) in the database

End of status report


==== Log checksum 30CD6AD51D9C442B9E794C5CDB7AE7C4EDDE4AE81BC2ABF86AEC8E96D34397CD ====



Create a new paste based on this one


Comments: