[ create a new paste ] login | about

Link: http://codepad.org/nW1GodM9    [ raw code | fork ]

Plain Text, pasted on Nov 4:
foobar2000 1.3.17 / Dynamic Range Meter 1.1.1
log date: 2018-11-03 16:12:36

--------------------------------------------------------------------------------
Analyzed: Eagles / Legacy
--------------------------------------------------------------------------------

DR         Peak         RMS     Duration Track
--------------------------------------------------------------------------------
DR12       0.00 dB   -15.26 dB      6:31 41-Hotel California (Remastered)
DR11       0.00 dB   -14.35 dB      5:05 42-New Kid In Town (Remastered)
DR11       0.00 dB   -13.44 dB      4:46 43-Life In The Fast Lane (Remastered)
DR12       0.00 dB   -15.55 dB      4:56 44-Wasted Time (Remastered)
DR11      -1.02 dB   -18.31 dB      1:23 45-Wasted Time (Reprise) [Remastered]
DR11       0.00 dB   -13.08 dB      4:10 46-Victim Of Love (Remastered)
DR14       0.00 dB   -17.63 dB      3:59 47-Pretty Maids All In A Row (Remastered)
DR10       0.00 dB   -12.71 dB      5:11 48-Try And Love Again (Remastered)
DR11       0.00 dB   -14.69 dB      7:24 49-The Last Resort (Remastered)
--------------------------------------------------------------------------------

Number of tracks:  9
Official DR value: DR12

Samplerate:        96000 Hz
Channels:          2
Bits per sample:   24
Bitrate:           2806 kbps
Codec:             FLAC
================================================================================




Create a new paste based on this one


Comments: