[ create a new paste ] login | about

Link: http://codepad.org/nWjvSK9C    [ raw code | fork ]

Plain Text, pasted on Jun 3:
Exact Audio Copy V1.0 beta 6 from 9. April 2015

EAC extraction logfile from 31. May 2019, 8:30

Paul McCartney / Egypt Station (Explorer's Edition) CD2

Used drive  : ATAPI   iHAS122   C   Adapter: 1  ID: 0

Read mode               : Secure
Utilize accurate stream : Yes
Defeat audio cache      : Yes
Make use of C2 pointers : No

Read offset correction                      : 6
Overread into Lead-In and Lead-Out          : No
Fill up missing offset samples with silence : Yes
Delete leading and trailing silent blocks   : No
Null samples used in CRC calculations       : Yes
Used interface                              : Native Win32 interface for Win NT & 2000

Used output format : Internal WAV Routines
Sample format      : 44.100 Hz; 16 Bit; Stereo


TOC of the extracted CD

     Track |   Start  |  Length  | Start sector | End sector 
    ---------------------------------------------------------
        1  |  0:00.00 |  3:41.07 |         0    |    16581   
        2  |  3:41.07 |  3:15.28 |     16582    |    31234   
        3  |  6:56.35 |  2:44.08 |     31235    |    43542   
        4  |  9:40.43 |  3:57.33 |     43543    |    61350   
        5  | 13:38.01 |  5:33.48 |     61351    |    86373   
        6  | 19:11.49 |  2:56.25 |     86374    |    99598   
        7  | 22:07.74 |  4:19.11 |     99599    |   119034   
        8  | 26:27.10 |  3:35.60 |    119035    |   135219   
        9  | 30:02.70 |  3:16.01 |    135220    |   149920   
       10  | 33:18.71 |  3:02.43 |    149921    |   163613   


Range status and errors

Selected range

     Filename C:\Desktop\Paul McCartney - Egypt Station (Explorer's Edition) CD2.wav

     Peak level 99.8 %
     Extraction speed 7.7 X
     Range quality 100.0 %
     Test CRC 11714BE5
     Copy CRC 11714BE5
     Copy OK

No errors occurred

 
AccurateRip summary
 
Track  1  not present in database
Track  2  not present in database
Track  3  not present in database
Track  4  not present in database
Track  5  not present in database
Track  6  not present in database
Track  7  not present in database
Track  8  not present in database
Track  9  not present in database
Track 10  not present in database
 
None of the tracks are present in the AccurateRip database

End of status report

---- CUETools DB Plugin V2.1.6

[CTDB TOCID: kEnqCnD.g0GXNjfzObWdmu6.b2o-] found
Submit result: kEnqCnD.g0GXNjfzObWdmu6.b2o- has been confirmed
Track | CTDB Status
  1   | (20/20) Accurately ripped
  2   | (20/20) Accurately ripped
  3   | (20/20) Accurately ripped
  4   | (20/20) Accurately ripped
  5   | (20/20) Accurately ripped
  6   | (20/20) Accurately ripped
  7   | (20/20) Accurately ripped
  8   | (20/20) Accurately ripped
  9   | (20/20) Accurately ripped
 10   | (20/20) Accurately ripped


==== Log checksum A938FD4D065209F077E053EAF6ED550D0CD28092E39CF8747FF89BC30447F377 ====



Create a new paste based on this one


Comments: