[ create a new paste ] login | about

Link: http://codepad.org/nXwExGie    [ raw code | fork ]

Plain Text, pasted on Jun 29:
foobar2000 1.5 / Dynamic Range Meter 1.1.1
log date: 2020-06-29 08:37:03

--------------------------------------------------------------------------------
Analyzed: ? / ?
--------------------------------------------------------------------------------

DR         Peak         RMS     Duration Track
--------------------------------------------------------------------------------
DR15      -3.37 dB   -21.87 dB      6:30 01-Unknown Album
DR14      -4.84 dB   -20.98 dB      5:02 02-Unknown Album
DR13      -4.76 dB   -19.23 dB      4:28 03-Unknown Album
DR14      -5.70 dB   -25.14 dB      5:50 04-Unknown Album
DR11      -5.11 dB   -18.20 dB      6:55 05-Unknown Album
DR12      -4.57 dB   -18.76 dB      5:18 06-Unknown Album
DR17      -9.37 dB   -30.61 dB      3:20 07-Unknown Album
DR13      -3.12 dB   -18.14 dB      8:15 08-Unknown Album
--------------------------------------------------------------------------------

Number of tracks:  8
Official DR value: DR13

Samplerate:        2822400 Hz / PCM Samplerate: 176400 Hz
Channels:          2
Bits per sample:   1
Bitrate:           5645 kbps
Codec:             DST64
================================================================================




Create a new paste based on this one


Comments: