[ create a new paste ] login | about

Link: http://codepad.org/nap2HDb2    [ raw code | fork ]

Plain Text, pasted on Aug 22:
[CUETools log; Date: 8/22/2019 11:51:31 AM; Version: 2.1.5]
[CTDB TOCID: 9u7r26BdQqnWwvJRrZ8I30XsNsc-] found.
Track | CTDB Status
  1   | (26/26) Accurately ripped
  2   | (26/26) Accurately ripped
  3   | (26/26) Accurately ripped
  4   | (26/26) Accurately ripped
  5   | (26/26) Accurately ripped
  6   | (26/26) Accurately ripped
  7   | (26/26) Accurately ripped
[AccurateRip ID: 000aed88-00418c8b-5e099607] found.
Track   [  CRC   |   V2   ] Status
 01     [cbb27d66|c8797dd9] (00+02/15) Accurately ripped
 02     [a03fc82b|e0b6c140] (00+02/15) Accurately ripped
 03     [b62356ff|f07b0e7b] (00+02/15) Accurately ripped
 04     [85abb920|1b3b3a67] (00+02/15) Accurately ripped
 05     [e9988bda|70373d99] (00+02/15) Accurately ripped
 06     [7acc953b|56d0f0fe] (00+02/15) Accurately ripped
 07     [76b461d7|0616fa39] (00+02/15) Accurately ripped
Offsetted by 6:
 01     [2e7de99a] (03/15) Accurately ripped
 02     [58c7b1b6] (03/15) Accurately ripped
 03     [3c433d82] (03/15) Accurately ripped
 04     [4352ad7a] (03/15) Accurately ripped
 05     [59589cb6] (03/15) Accurately ripped
 06     [23e55752] (03/15) Accurately ripped
 07     [c0b0fd3e] (03/15) Accurately ripped

Track Peak [ CRC32  ] [W/O NULL] [  LOG   ]
 --   99.3 [92B4850B] [F67DD1F3]   CRC32   
 01   98.9 [2A05837F] [FACBB1A5]           
 02   99.3 [EDF315AF] [00039F0E]           
 03   95.8 [E2B64D5E] [5F8632FD]           
 04   94.3 [894E2693] [47EFD2B7]           
 05   98.9 [4788C35E] [3775549F]           
 06   93.4 [6D7B6842] [6C475D53]           
 07   98.8 [A707820C] [4A31DC3B]           



Create a new paste based on this one


Comments: