[ create a new paste ] login | about

Link: http://codepad.org/nfjgHwsF    [ raw code | fork ]

Plain Text, pasted on Dec 15:
CD1
:::

[CUETools log; Date: 23.05.2015 22:01:27; Version: 2.1.4]
[CTDB TOCID: Ect6KPZAiyg22IYE.SDrHvnQAoY-] found.
Track | CTDB Status
  1   | (12/12) Accurately ripped
  2   | (12/12) Accurately ripped
  3   | (12/12) Accurately ripped
  4   | (12/12) Accurately ripped
  5   | (12/12) Accurately ripped
  6   | (12/12) Accurately ripped
  7   | ( 3/12) Differs in 1908 samples @12:21:71-12:21:73, or (8/12) differs in 569 samples @09:15:54,12:21:73-12:21:74
[AccurateRip ID: 0010f196-0063c9c0-6c0e5b07] found.
Track   [  CRC   |   V2   ] Status
 01     [a8518b84|b05b67ab] (05+02/19) Accurately ripped
 02     [ca7c635f|b3a215f2] (05+02/21) Accurately ripped
 03     [0c71f895|62c493d7] (05+02/21) Accurately ripped
 04     [1246e156|86139e8e] (05+02/21) Accurately ripped
 05     [c438b052|d2530961] (05+02/21) Accurately ripped
 06     [0645ce90|2564b94b] (05+02/21) Accurately ripped
 07     [59071de1|33dbc9b9] (00+00/18) No match
Offsetted by 2059:
 01     [faf7cc1b] (00/19) No match (V2 was not tested)
 02     [60c852bc] (00/21) No match (V2 was not tested)
 03     [b8cbb9f2] (00/21) No match (V2 was not tested)
 04     [79814c97] (00/21) No match (V2 was not tested)
 05     [9e39c28a] (00/21) No match (V2 was not tested)
 06     [fbf97483] (00/21) No match (V2 was not tested)
 07     [a52916a7] (00/18) No match (V2 was not tested)
Offsetted by 2564:
 01     [9bb6f1da] (00/19) No match (V2 was not tested)
 02     [013c6135] (02/21) Accurately ripped
 03     [429daad9] (02/21) Accurately ripped
 04     [7ea93b77] (02/21) Accurately ripped
 05     [25b6a4a2] (02/21) Accurately ripped
 06     [11722984] (02/21) Accurately ripped
 07     [aa666b45] (00/18) No match (V2 was not tested)
Offsetted by 2855:
 01     [1fb84b5a] (07/19) Accurately ripped
 02     [f77b6344] (07/21) Accurately ripped
 03     [24c30f62] (07/21) Accurately ripped
 04     [391922cd] (07/21) Accurately ripped
 05     [a5cc96e0] (07/21) Accurately ripped
 06     [57bf3946] (07/21) Accurately ripped
 07     [9a42566a] (00/18) No match (V2 was not tested)

Track Peak [ CRC32  ] [W/O NULL] [  LOG   ]
 --   98,8 [3DE8AD04] [F6704DAE]   CRC32   
 01   94,3 [BC8174E5] [EB66855D]           
 02   96,3 [3B8F4040] [109822E7]           
 03   94,6 [F35198D5] [8465927E]           
 04   95,9 [1F28E4F1] [02819DB8]           
 05   98,8 [762006C9] [E57485BC]           
 06   94,1 [6E2AD098] [047A7C86]           
 07   95,2 [7D72A2AB] [70342AFB]           


CD2
:::

[CUETools log; Date: 23.05.2015 22:02:07; Version: 2.1.4]
Pregap length 00:00:32.
[CTDB TOCID: 5Q35Fch_F1CpxWf6pFYWlNivT14-] found.
Track | CTDB Status
  1   | (5/5) Accurately ripped
  2   | (5/5) Accurately ripped
  3   | (5/5) Accurately ripped
  4   | (5/5) Accurately ripped
  5   | (5/5) Accurately ripped
  6   | (5/5) Accurately ripped
  7   | (5/5) Accurately ripped
  8   | (5/5) Accurately ripped
  9   | (5/5) Accurately ripped
 10   | (5/5) Accurately ripped
 11   | (5/5) Accurately ripped
 12   | (5/5) Accurately ripped
 13   | (5/5) Accurately ripped
 14   | (5/5) Accurately ripped
 15   | (5/5) Accurately ripped
[AccurateRip ID: 001df934-015bd5f3-ba0e850f] found.
Track   [  CRC   |   V2   ] Status
 01     [0180b3dc|b924f2ef] (05+02/14) Accurately ripped
 02     [895425d2|b310e871] (05+02/14) Accurately ripped
 03     [d2b1717a|a665cbe3] (05+02/14) Accurately ripped
 04     [27ffb887|cfe3c96b] (05+02/14) Accurately ripped
 05     [3d29e437|d87cedc2] (05+02/14) Accurately ripped
 06     [6606a65b|41e7c805] (05+02/14) Accurately ripped
 07     [c21c64c2|d16911d8] (05+02/14) Accurately ripped
 08     [a559fe5e|0317f2af] (05+02/14) Accurately ripped
 09     [e1dc69dd|47a3450f] (05+02/14) Accurately ripped
 10     [9c3caa18|51895eaf] (05+02/14) Accurately ripped
 11     [d4d23f62|962bfe52] (05+02/14) Accurately ripped
 12     [e98d1d0a|88e9cda5] (05+02/14) Accurately ripped
 13     [d83b2999|573247ee] (05+02/14) Accurately ripped
 14     [3fd2cc49|f72ce9f8] (05+02/14) Accurately ripped
 15     [7f4f5960|c04ed8e9] (05+02/14) Accurately ripped
Offsetted by 2496:
 01     [1eabc35c] (03/14) Accurately ripped
 02     [345353d2] (03/14) Accurately ripped
 03     [bb98c07a] (03/14) Accurately ripped
 04     [d7153cc7] (03/14) Accurately ripped
 05     [1a48bfb7] (03/14) Accurately ripped
 06     [741dce9b] (03/14) Accurately ripped
 07     [89135cc2] (03/14) Accurately ripped
 08     [d590431e] (03/14) Accurately ripped
 09     [c33c15dd] (03/14) Accurately ripped
 10     [02ab5c98] (03/14) Accurately ripped
 11     [a3acb862] (03/14) Accurately ripped
 12     [1036dc4a] (03/14) Accurately ripped
 13     [67e04dd9] (03/14) Accurately ripped
 14     [68641589] (03/14) Accurately ripped
 15     [f3c43c20] (03/14) Accurately ripped
Offsetted by 2000:
 01     [3e9e487c] (00/14) No match (V2 was not tested)
 02     [887fcc52] (00/14) No match (V2 was not tested)
 03     [c6c01eba] (00/14) No match (V2 was not tested)
 04     [a3e15f37] (00/14) No match (V2 was not tested)
 05     [7ec0f9d7] (00/14) No match (V2 was not tested)
 06     [f151000b] (00/14) No match (V2 was not tested)
 07     [a9be2ec2] (00/14) No match (V2 was not tested)
 08     [b6a64c6e] (00/14) No match (V2 was not tested)
 09     [78e912dd] (00/14) No match (V2 was not tested)
 10     [7b7142f8] (00/14) No match (V2 was not tested)
 11     [4c9ed822] (00/14) No match (V2 was not tested)
 12     [212589fa] (00/14) No match (V2 was not tested)
 13     [b2b74849] (00/14) No match (V2 was not tested)
 14     [75a9acb9] (00/14) No match (V2 was not tested)
 15     [eead01f0] (00/14) No match (V2 was not tested)

Track Peak [ CRC32  ] [W/O NULL] [  LOG   ]
 --  100,0 [3F5A4B75] [A0804DE3]   CRC32   
 01   91,7 [D80425CD] [3A26DFCF]           
 02   95,7 [2BB7F881] [C97D70A5]           
 03   94,9 [6F74871C] [1CC1BBA5]           
 04   97,3 [C6220B51] [A6317258]           
 05   94,5 [5E338F5C] [5B420810]           
 06   97,9 [ACFA6974] [C9F4B78E]           
 07   97,3 [572ECE6C] [640E459C]           
 08  100,0 [1320D038] [860BEC06]           
 09   99,2 [378B5863] [22040A49]           
 10  100,0 [39F36D56] [954E7F9F]           
 11   97,2 [52F8801A] [BDB3DBB1]           
 12   91,3 [2FB74CCC] [7294F579]           
 13   94,6 [E2AB666F] [39D7AC41]           
 14   93,8 [9499626B] [4E16A53B]           
 15   98,3 [419CC52B] [786B0502]           



Create a new paste based on this one


Comments: