[ create a new paste ] login | about

Link: http://codepad.org/nhS8XdTm    [ raw code | fork ]

Plain Text, pasted on Aug 13:
Exact Audio Copy V1.3 from 2. September 2016

EAC extraction logfile from 4. August 2018, 9:28

Buffalo Springfield / Buffalo Springfield (Mono)

Used drive  : PLEXTOR BD-R  PX-B950SA   Adapter: 1  ID: 1

Read mode               : Secure
Utilize accurate stream : Yes
Defeat audio cache      : Yes
Make use of C2 pointers : No

Read offset correction                      : 6
Overread into Lead-In and Lead-Out          : No
Fill up missing offset samples with silence : Yes
Delete leading and trailing silent blocks   : No
Null samples used in CRC calculations       : Yes
Used interface                              : Native Win32 interface for Win NT & 2000

Used output format : Internal WAV Routines
Sample format      : 44.100 Hz; 16 Bit; Stereo


TOC of the extracted CD

     Track |   Start  |  Length  | Start sector | End sector 
    ---------------------------------------------------------
        1  |  0:00.00 |  2:23.03 |         0    |    10727   
        2  |  2:23.03 |  2:34.13 |     10728    |    22290   
        3  |  4:57.16 |  2:45.46 |     22291    |    34711   
        4  |  7:42.62 |  3:26.71 |     34712    |    50232   
        5  | 11:09.58 |  2:51.22 |     50233    |    63079   
        6  | 14:01.05 |  2:25.39 |     63080    |    73993   
        7  | 16:26.44 |  2:41.60 |     73994    |    86128   
        8  | 19:08.29 |  2:17.29 |     86129    |    96432   
        9  | 21:25.58 |  3:03.21 |     96433    |   110178   
       10  | 24:29.04 |  3:06.12 |    110179    |   124140   
       11  | 27:35.16 |  3:07.24 |    124141    |   138189   
       12  | 30:42.40 |  2:39.01 |    138190    |   150115   
       13  | 33:21.41 |  2:40.48 |    150116    |   162163   


Range status and errors

Selected range

     Filename C:\Buffalo Springfield\2018 What's That Sound (5CD Box Set Rhino Records)\1966 Buffalo Springfield (Mono)\Buffalo Springfield - Buffalo Springfield (Mono).wav

     Peak level 100.0 %
     Extraction speed 6.6 X
     Range quality 100.0 %
     Test CRC C7BB660C
     Copy CRC C7BB660C
     Copy OK

No errors occurred

 
AccurateRip summary
 
Track  1  accurately ripped (confidence 2)  [8439ED64]  (AR v2)
Track  2  accurately ripped (confidence 2)  [79EDDE57]  (AR v2)
Track  3  accurately ripped (confidence 2)  [79A1BE08]  (AR v2)
Track  4  accurately ripped (confidence 2)  [70C042E5]  (AR v2)
Track  5  accurately ripped (confidence 2)  [6A65335C]  (AR v2)
Track  6  accurately ripped (confidence 2)  [1710C187]  (AR v2)
Track  7  accurately ripped (confidence 2)  [4559E24B]  (AR v2)
Track  8  accurately ripped (confidence 2)  [37A447DA]  (AR v2)
Track  9  accurately ripped (confidence 2)  [1E46028B]  (AR v2)
Track 10  accurately ripped (confidence 2)  [74749CD9]  (AR v2)
Track 11  accurately ripped (confidence 2)  [844F2DDC]  (AR v2)
Track 12  accurately ripped (confidence 2)  [CD472E90]  (AR v2)
Track 13  accurately ripped (confidence 2)  [D0EE36EF]  (AR v2)
 
All tracks accurately ripped

End of status report

---- CUETools DB Plugin V2.1.6

[CTDB TOCID: c81Sokz8zhGG30XYiaV6YUoO8Lo-] found
Submit result: c81Sokz8zhGG30XYiaV6YUoO8Lo- has been confirmed
Track | CTDB Status
  1   | (18/18) Accurately ripped
  2   | (18/18) Accurately ripped
  3   | (18/18) Accurately ripped
  4   | (18/18) Accurately ripped
  5   | (18/18) Accurately ripped
  6   | (18/18) Accurately ripped
  7   | (18/18) Accurately ripped
  8   | (18/18) Accurately ripped
  9   | (18/18) Accurately ripped
 10   | (18/18) Accurately ripped
 11   | (18/18) Accurately ripped
 12   | (18/18) Accurately ripped
 13   | (18/18) Accurately ripped


==== Log checksum DC22CABC2A025DD1ACB67B486D06CF288E8D8322BE4DC0BB7605A50473C81D23 ====



Create a new paste based on this one


Comments: